pick icons pick landscape

Impressive Torrents Picker

Download torrent:
"Eroticon 2002 Gangbang Competition (XXX)(iPod,PSP,Zune)"

Size: 245.43 MB
Category: Unsorted
Date: 2011-02-10 06:44:02
Seeders: 0
Leechers: 0
Download This Torrent

Description

 Klaudia Figura originally from Poland had sex with 646 men in on February 10th, 2002 at the First Annual World Gangbang Championship in Warsaw, Poland.  200 people viewed the event live on a large video screen.

Screenshots

http://d9dee557.picbucks.com


http://bdd8eb32.picbucks.com


Video
ID : 1
Format : AVC
Format/Info : Advanced Video Codec
Format profile : Baseline@L1.3
Format settings, CABAC : No
Format settings, ReFrames : 2 frames
Codec ID : avc1
Codec ID/Info : Advanced Video Coding
Duration : 1h 21mn
Bit rate mode : Variable
Bit rate : 350 Kbps
Width : 364 pixels
Height : 272 pixels
Display aspect ratio : 4:3
Frame rate mode : Variable
Frame rate : 23.976 fps
Minimum frame rate : 23.974 fps
Maximum frame rate : 23.981 fps
Color space : YUV
Chroma subsampling : 4:2:0
Bit depth : 8 bits
Scan type : Progressive
Bits/(Pixel*Frame) : 0.147
Stream size : 205 MiB (84%)
Writing library : x264 core 112

Audio
ID : 2
Format : AAC
Format/Info : Advanced Audio Codec
Format profile : LC
Codec ID : 40
Duration : 1h 21mn
Bit rate mode : Variable
Bit rate : 64.2 Kbps
Maximum bit rate : 110 Kbps
Channel(s) : 2 channels
Channel positions : Front: L R
Sampling rate : 48.0 KHz
Compression mode : Lossy
Stream size : 37.6 MiB (15%)

Screenshots

http://d9dee557.picbucks.com


http://bdd8eb32.picbucks.com


More Torrents...

http://thepiratebay.org/user/punter21/