picktorrent picktorrent engine
LOGIN REGISTER

Impressive Torrents Picker

ADD     picktorrent  to search engine list

Security note: Downloading torrents is getting riskier everyday. We strongly recommend our users to use SpyOFF VPN to make themselves anonymous while downloading torrents. By using SpyOFF VPN, your ISPs and Government agencies will not be able to spy on you neither would they be able to track your online activities.

Try it for free

Download torrent:
"Сериал Белая королева, 1 сезон 1-10 серии из 10 скачать бесплатно через торрент. Белая королева, 1 сезон 1-10 серии из 10 / The White Queen"

Size: 24 GB
Category: Video > ru
Date: 2013-08-20 16:46:33
Seeders: 0
Leechers: 0
Download This Torrent Magnet Link
We picked this "Сериал Белая королева, 1 сезон 1-10 серии из 10 скачать бесплатно через торрент. Белая королева, 1 сезон 1-10 серии из 10 / The White Queen" on: Rutor, Limetorrents, Bitsnoop, Filesh

Description

																					

Server:
Rutor

Год выпуска: 2013
Страна: Великобритания
Жанр: Драма
Дата мировой премьеры: 16 июня 2013
Продолжительность: ~00:58:00 / Серия
Перевод: Профессиональный (многоголосый закадровый)
Автор перевода: Янина Галицкая
Озвучка: Светлана Доманова, Лира Грим, Артемий Мирон и Виталий Ткаченко
Режиссёр: Колин Тиг, Джеймс Кент, Джэми Пэйн
В ролях: Анайрин Барнард, Ребекка Фергюсон, Аманда Хейл, Фэй Марсей, Дэвид Оукс, Макс Айронс, Том МакКэй, Бен Лэмб, Кэролайн Гудолл, Элинор Томлинсон
Описание:
"Белая королева" - это захватывающая история о трех разных, и вместе с тем одинаково амбициозных женщинах, стремящихся добиться власти любыми способами — Елизаветы Вудвиль, Маргариты Бофорт и Анны Невилл. Это потрясающие сюжеты о любви и утрате, обольщении и обмане, предательстве и убийствах. Одни из самых безжалостных игроков, известных в истории, вновь затеяли древнюю игру престолов. Чтобы достичь своей цели, они не остановятся ни перед чем.
Качество: HDTV 1080i
Аудио: AAC | 48KHz | 2.0 (Front: L R) | 192 kbps
Аудио 2: AC3 | 48KHz | 2.0 (Front: L R) | 192 kbps
Субтитры: softsub (SRT) Русские, Английские
MediaInfo
General
Уникальный идентификатор : 185704314971968932008128015616510706270 (0x8BB559A0321DA648A5A290715D72C25E)
Полное имя : H:The White QueenThe.White.Queen.S01.1080i.HDTV.H.264.DD2.0-BS666The.White.Queen.S01.1080i.HDTV.H.264.DD2.0-BS666.mkv
Формат : Matroska
Версия формата : Version 4 / Version 2
Размер файла : 2.59 GiB
Продолжительность : 59mn 1s
Общий поток : 6 287 Kbps
Название фильма : BaibaKo.tv presents - Белая королева 1x01
Дата кодирования : UTC 2013-06-18 06:54:50
Программа кодирования : mkvmerge v6.2.0 ('Promised Land') built on Apr 28 2013 12:22:01
Библиотека кодирования : libebml v1.3.0 + libmatroska v1.4.0
Video
Идентификатор : 1
Формат : AVC
Формат/Информация : Advanced Video Codec
Профиль формата : High@L4.0
Параметр CABAC формата : Yes
Параметр ReFrames формата : 4 frames
Идентификатор кодека : V_MPEG4/ISO/AVC
Продолжительность : 59mn 1s
Ширина : 1 920 pixels
Высота : 1 080 pixels
Соотношение сторон : 16:9
Режим частоты кадров : Constant
Частота кадров : 25.000 fps
Цветовое пространство : YUV
Субдискретизация насыщенности : 4:2:0
Битовая глубина : 8 bits
Тип развёртки : MBAFF
Порядок развёртки : Top Field First
Язык : English
Default : Yes
Forced : No
Color primaries : BT.709
Transfer characteristics : BT.709
Matrix coefficients : BT.709
Audio #1
Идентификатор : 2
Формат : AAC
Формат/Информация : Advanced Audio Codec
Профиль формата : LC
Идентификатор кодека : A_AAC
Продолжительность : 59mn 1s
Каналы : 2 channels
Расположение каналов : Front: L R
Частота : 48.0 KHz
Метод сжатия : Lossy
Задержка видео : -191ms
Язык : Russian
Default : Yes
Forced : No
Audio #2
Идентификатор : 3
Формат : AC-3
Формат/Информация : Audio Coding 3
Расширение режима : CM (complete main)
Параметр Endianness формата : Big
Идентификатор кодека : A_AC3
Продолжительность : 59mn 1s
Вид битрейта : Constant
Битрейт : 192 Kbps
Каналы : 2 channels
Расположение каналов : Front: L R
Частота : 48.0 KHz
Битовая глубина : 16 bits
Метод сжатия : Lossy
Задержка видео : -200ms
Размер потока : 81.1 MiB (3%)
Язык : English
Default : No
Forced : No
Text #1
Идентификатор : 4
Формат : UTF-8
Идентификатор кодека : S_TEXT/UTF8
Идентификатор кодека/Информация : UTF-8 Plain Text
Язык : Russian
Default : No
Forced : No
Text #2
Идентификатор : 5
Формат : UTF-8
Идентификатор кодека : S_TEXT/UTF8
Идентификатор кодека/Информация : UTF-8 Plain Text
Язык : English
Default : No
Forced : No

Server:
Filesh

Белая королева, 1 сезон 1-10 серии из 10 / The White Queen (Колин Тиг) [2013, история, драма, мелодрама, HDTV 1080p, P, SUB]
Сезон 1 Серии 1-10
Перевод:Профессиональный (Многоголосый, закадровый)Субтитры:Русские, Английские
Слоган:«Мужчины идут в бой. Женщины ведут войну.»
Формат:HDTV, MKV, H264, AAC
Страна:Великобритания, США | BBC Drama Productions
Режиссер:Колин Тиг, Джеймс Кент, Джэми Пэйн
Жанр:история, драма, мелодрама
Всего серий:10
Продолжительность:10 х ~00:58:00
Год выпуска:2013
В ролях:Анайрин Барнард, Ребекка Фергюсон, Аманда Хейл, Фэй Марсей, Дэвид Оукс, Макс Айронс, Том МакКэй, Бен Лэмб, Кэролайн Гудолл, Элинор Томлинсон Описание: Это захватывающая история о трех разных, и вместе с тем одинаково амбициозных женщинах, стремящихся добиться власти любыми способами — Елизаветы Вудвиль, Маргариты Бофорт и Анны Невилл. Это потрясающие сюжеты о любви и утрате, обольщении и обмане, предательстве и убийствах. Одни из самых безжалостных игроков, известных в истории, вновь затеяли древнюю игру престолов. Чтобы достичь своей цели, они не остановятся ни перед чем..
Рейтинг:
Видео:1920x1080 (1.77:1), 25 fps, AVC (x264), High@ L4.0 ~5936 kbps avg, 0.115 bit/pixel.
Аудио Rus:48 kHz, AAC, 2/0 (L, R) ch, ~192 kbps.
Аудио Eng:48 kHz, AC3 Dolby Digital, 2/0 (L, R) ch, ~192 kbps.
Релиз:
Перевод:Янина Галицкая
Озвучка:Светлана Доманова, Лира Грим, Артемий Мирон и Виталий Ткаченко
MediaInfoФормат : Matroska
Версия формата : Version 4 / Version 2
Размер файла : 2, 49 Гбайт
Продолжительность : 58 м.
Общий поток : 6061 Кбит/сек
Дата кодирования : UTC 2013-06-24 21:19:11
Программа кодирования : mkvmerge v6.2.0 ('Promised Land') built on Apr 28 2013 12:22:01
Библиотека кодирования : libebml v1.3.0 + libmatroska v1.4.0
Видео
Идентификатор : 1
Формат : AVC
Формат/Информация : Advanced Video Codec
Профиль формата : High@L4.0
Параметр CABAC формата : Да
Параметр ReFrames формата : 4 кадра
Идентификатор кодека : V_MPEG4/ISO/AVC
Продолжительность : 58 м.
Ширина : 1920 пикселей
Высота : 1080 пикселей
Соотношение сторон : 16:9
Частота кадров : 25, 000 кадров/сек
Цветовое пространство : YUV
Субдискретизация насыщенности : 4:2:0
Битовая глубина : 8 бит
Тип развёртки : MBAFF
Default : Да
Forced : Нет
Основные цвета : BT.709-5, BT.1361, IEC 61966-2-4, SMPTE RP177
Характеристики трансфера : BT.709-5, BT.1361
Коэффициенты матрицы : BT.709-5, BT.1361, IEC 61966-2-4 709, SMPTE RP177
Аудио #1
Идентификатор : 2
Формат : AAC
Формат/Информация : Advanced Audio Codec
Профиль формата : LC
Идентификатор кодека : A_AAC
Продолжительность : 58 м.
Каналы : 2 канала
Расположение каналов : Front: L R
Частота : 48, 0 КГц
Метод сжатия : С потерями
Задержка видео : -120 мс.
Язык : Russian
Default : Да
Forced : Нет
Аудио #2
Идентификатор : 3
Формат : AC-3
Формат/Информация : Audio Coding 3
Расширение режима : CM (complete main)
Идентификатор кодека : A_AC3
Продолжительность : 58 м.
Вид битрейта : Постоянный
Битрейт : 192 Кбит/сек
Каналы : 2 канала
Расположение каналов : Front: L R
Частота : 48, 0 КГц
Битовая глубина : 16 бит
Метод сжатия : С потерями
Задержка видео : -120 мс.
Размер потока : 80, 7 Мбайт (3%)
Язык : English
Default : Нет
Forced : Нет
Текст #1
Идентификатор : 4
Формат : UTF-8
Идентификатор кодека : S_TEXT/UTF8
Идентификатор кодека/Информация : UTF-8 Plain Text
Язык : Russian
Default : Нет
Forced : Нет
Текст #2
Идентификатор : 5
Формат : UTF-8
Идентификатор кодека : S_TEXT/UTF8
Идентификатор кодека/Информация : UTF-8 Plain Text
Язык : English
Default : Нет
Forced : Нет