picktorrent picktorrent engine
LOGIN REGISTER

Impressive Torrents Picker

ADD     picktorrent  to search engine list

Security note: Downloading torrents is getting riskier everyday. We strongly recommend our users to use SpyOFF VPN to make themselves anonymous while downloading torrents. By using SpyOFF VPN, your ISPs and Government agencies will not be able to spy on you neither would they be able to track your online activities.

Try it for free

Download torrent:
"Chand Tare Tod- Single (Hip Hop Mix) - 2009 (Mp3)"

Size: 10 MB
Category: Music > Hip Hop
Date: 2002-01-01 03:25:00
Seeders: 0
Leechers: 0
Download This Torrent Magnet Link
We picked this "Chand Tare Tod- Single (Hip Hop Mix) - 2009 (Mp3)" on: Torrentbit, Kickasstorrents, Filesh, Bitsnoop

Description

																					

Server:
Kickasstorrents

Format : mp3Duration : 4mn 15sBit rate mode : ConstantBit rate : 320 KbpsSampling rate : 44.1 KHzCompression mode : LossyStream size : 9.73 MiB (99%)

Server:
Filesh

Format : mp3
Duration : 4mn 15s
Bit rate mode : Constant
Bit rate : 320 Kbps
Sampling rate : 44.1 KHz
Compression mode : Lossy
Stream size : 9.73 MiB (99%)