picktorrent picktorrent engine

Impressive Torrents Picker

ADD     picktorrent  to search engine list

Security note: Downloading torrents is getting riskier everyday. We strongly recommend our users to use SpyOFF VPN to make themselves anonymous while downloading torrents. By using SpyOFF VPN, your ISPs and Government agencies will not be able to spy on you neither would they be able to track your online activities.

Try it for free

Download torrent:
"Эммануэль 2 / Emmanuelle: L'antivierge (1975) BDRip-AVC от MediaClub P, A"

Size: 2.6 GB Category: Video > ru Date: 2013-12-22 09:15:54
Seeders: 0 Leechers: 0
Download This Torrent Magnet Link
We picked this "Эммануэль 2 / Emmanuelle: L'antivierge (1975) BDRip-AVC от MediaClub P, A" on: Rutor, Bitsnoop, Limetorrents, Monova

Description

																					

Server:
Rutor

Информация о фильме
Название: Эммануэль 2
Оригинальное название: Emmanuelle: L'antivierge
Год выхода: 1975
Жанр: Эротика, мелодрама
Режиссер: Франсис Джакобетти
В ролях: Сильвия Кристель, Умберто Орсини, Фредерик Лагаш, Катрин Риве, Анри Черняк, Том Кларк, Флоранс Л. Афума, Клер Ришар, Лаура Гемсер, Жаклин Мэй Лайн, Ева Хамел, Кристиана Жибелин, Жан-Пьерр Нэм, Марсель Лан Фонг, Изабель Лакан, Каролин Лоранс, Венантино Венантини
О фильме:
Во втором фильме знаменитого сериала Эммануэль из прилежной ученицы, усваивающей уроки любви, превращается в неистовую и ненасытную охотницу за наслаждениями. Эротизм картины значительно превышает первый фильм сериала. Незатейливый сюжет украшен пейзажами и нарядами, автомобилями и океанскими волнами и наполнен страстью.
Страна: Франция / Trinacra Films, Parafrance Films, Orphée Arts
Продолжительность: 01:31:25
Перевод: Профессиональный многоголосый, авторский
Файл
Кодек: x264
Качество: BDRip-AVC
Видео: MPEG-4 AVC, 3032 Кбит/с, 1024x436, 23.976 кадр/с
Аудио #1: Русский (AC3, 6 ch, 448 Кбит/с) / Профессиональный многоголосый
Аудио #2: Русский (AC3, 2 ch, 192 Кбит/с) / Авторский одноголосый ( А.Мишин)
Аудио #3: Английский (AC3, 2 ch, 192 Кбит/с)
Аудио #4: Французский (AC3, 2 ch, 192 Кбит/с)
Субтитры: Русские, английские
Семпл
О релизе За аудио 1 спасибо kaspr
За исходник спасибо Remux (HDTracker)
MI Format : Matroska
Format version : Version 4 / Version 2
File size : 2.59 GiB
Duration : 1h 31mn
Overall bit rate : 4 059 Kbps
Movie name : -=MediaClub - Odessit=-
Encoded date : UTC 2013-12-22 14:08:10
Writing application : mkvmerge v6.1.0 ('Old Devil') built on Mar 4 2013 09:10:42
Writing library : libebml v1.3.0 + libmatroska v1.4.0
Video
ID : 1
Format : AVC
Format/Info : Advanced Video Codec
Format profile : High@L4.1
Format settings, CABAC : Yes
Format settings, ReFrames : 9 frames
Codec ID : V_MPEG4/ISO/AVC
Duration : 1h 31mn
Bit rate : 3 032 Kbps
Width : 1 024 pixels
Height : 436 pixels
Display aspect ratio : 2.35:1
Frame rate : 23.976 fps
Color space : YUV
Chroma subsampling : 4:2:0
Bit depth : 8 bits
Scan type : Progressive
Bits/(Pixel*Frame) : 0.283
Stream size : 1.89 GiB (73%)
Writing library : x264 core 130 r2273 b3065e6
Encoding settings : cabac=1 / ref=9 / deblock=1:-2:-2 / analyse=0x3:0x133 / me=umh / subme=11 / psy=1 / psy_rd=1.00:0.20 / mixed_ref=1 / me_range=48 / chroma_me=1 / trellis=2 / 8x8dct=1 / cqm=0 / deadzone=21,11 / fast_pskip=0 / chroma_qp_offset=-3 / threads=6 / lookahead_threads=1 / sliced_threads=0 / nr=0 / decimate=0 / interlaced=0 / bluray_compat=0 / constrained_intra=0 / bframes=13 / b_pyramid=2 / b_adapt=2 / b_bias=0 / direct=3 / weightb=1 / open_gop=0 / weightp=2 / keyint=240 / keyint_min=23 / scenecut=40 / intra_refresh=0 / rc=2pass / mbtree=0 / bitrate=3032 / ratetol=1.0 / qcomp=0.60 / qpmin=0 / qpmax=69 / qpstep=4 / cplxblur=20.0 / qblur=0.5 / ip_ratio=1.40 / pb_ratio=1.30 / aq=1:1.00
Language : English
Audio #1
ID : 2
Format : AC-3
Format/Info : Audio Coding 3
Mode extension : CM (complete main)
Codec ID : A_AC3
Duration : 1h 31mn
Bit rate mode : Constant
Bit rate : 448 Kbps
Channel(s) : 6 channels
Channel positions : Front: L C R, Side: L R, LFE
Sampling rate : 48.0 KHz
Bit depth : 16 bits
Compression mode : Lossy
Stream size : 293 MiB (11%)
Title : Профессиональный многоголосый
Language : Russian
Audio #2
ID : 3
Format : AC-3
Format/Info : Audio Coding 3
Mode extension : CM (complete main)
Codec ID : A_AC3
Duration : 1h 31mn
Bit rate mode : Constant
Bit rate : 192 Kbps
Channel(s) : 2 channels
Channel positions : Front: L R
Sampling rate : 48.0 KHz
Bit depth : 16 bits
Compression mode : Lossy
Stream size : 126 MiB (5%)
Title : авторский одноголосый, А.Мишин
Language : Russian
Audio #3
ID : 4
Format : AC-3
Format/Info : Audio Coding 3
Mode extension : CM (complete main)
Codec ID : A_AC3
Duration : 1h 31mn
Bit rate mode : Constant
Bit rate : 192 Kbps
Channel(s) : 2 channels
Channel positions : Front: L R
Sampling rate : 48.0 KHz
Bit depth : 16 bits
Compression mode : Lossy
Stream size : 126 MiB (5%)
Language : English
Audio #4
ID : 5
Format : AC-3
Format/Info : Audio Coding 3
Mode extension : CM (complete main)
Codec ID : A_AC3
Duration : 1h 31mn
Bit rate mode : Constant
Bit rate : 192 Kbps
Channel(s) : 2 channels
Channel positions : Front: L R
Sampling rate : 48.0 KHz
Bit depth : 16 bits
Compression mode : Lossy
Stream size : 126 MiB (5%)
Language : French
Text #1
ID : 6
Format : UTF-8
Codec ID : S_TEXT/UTF8
Codec ID/Info : UTF-8 Plain Text
Language : Russian
Text #2
ID : 7
Format : UTF-8
Codec ID : S_TEXT/UTF8
Codec ID/Info : UTF-8 Plain Text
Language : English
Menu
00:00:00.000 : :Chapter 01
00:05:55.355 : :Chapter 02
00:12:00.678 : :Chapter 03
00:18:04.333 : :Chapter 04
00:26:11.236 : :Chapter 05
00:31:43.943 : :Chapter 06
00:36:00.324 : :Chapter 07
00:42:01.936 : :Chapter 08
00:47:56.331 : :Chapter 09
00:56:26.883 : :Chapter 10
01:05:05.526 : :Chapter 11
01:07:26.167 : :Chapter 12
01:11:47.344 : :Chapter 13
01:17:49.581 : :Chapter 14
01:23:45.437 : :Chapter 15
01:29:38.456 : :Chapter 16
01:31:24.479 : :Chapter 17
Скриншоты
Релиз от: |