picktorrent picktorrent engine
LOGIN REGISTER

Impressive Torrents Picker

ADD     picktorrent  to search engine list

Security note: Downloading torrents is getting riskier everyday. We strongly recommend our users to use SpyOFF VPN to make themselves anonymous while downloading torrents. By using SpyOFF VPN, your ISPs and Government agencies will not be able to spy on you neither would they be able to track your online activities.

Try it for free

Download torrent:
"Enrique Iglesias Feat Flo Rida - There Goes My Baby [Single - 2014]"

Size: 7.8 MB
Category: Music > Audio
Date: 2014-03-12 10:48:42
Seeders: 3
Leechers: 0
Download This Torrent Magnet Link
We picked this "Enrique Iglesias Feat Flo Rida - There Goes My Baby [Single - 2014]" on: Thepiratebay, BitreactorTo, Torrents, Torrentroom, Kickasstorrents, Limetorrents, GlodlsTo

Description

																					

Server:
Thepiratebay

Format : MPEG Audio
File size : 7.85 MiB
Duration : 3mn 16s
Overall bit rate mode : Constant
Overall bit rate : 320 Kbps
Album : Sex + Love
Album/Performer : Enrique Iglesias
Track name : There Goes My Baby
Track name/Position : 1
Performer : Enrique Iglesias Feat. Flo Rida
Composer : Enrique Iglesias
Encoded by : BibekBohidar
Genre : Pop
Recorded date : 2014
Writing library : LAMELAME_MAJOR_VERSI
Cover : Yes
Cover type : Cover (front)
Cover MIME : image/png
Audio
Format : MPEG Audio
Format version : Version 1
Format profile : Layer 3
Duration : 3mn 16s
Bit rate mode : Constant
Bit rate : 320 Kbps
Channel count : 2 channels
Sampling rate : 48.0 KHz
Compression mode : Lossy
Stream size : 7.49 MiB (95%)
Writing library : LAMELAME_MAJOR_VERSI
Plz Visit: BibekBohidarMusic.co.nr/

Server:
BitreactorTo

Format : MPEG Audio
File size : 7.85 MiB
Duration : 3mn 16s
Overall bit rate mode : Constant
Overall bit rate : 320 Kbps
Album : Sex + Love
Album/Performer : Enrique Iglesias
Track name : There Goes My Baby
Track name/Position : 1
Performer : Enrique Iglesias Feat. Flo Rida
Composer : Enrique Iglesias
Encoded by : BibekBohidar
Genre : Pop
Recorded date : 2014
Writing library : LAMELAME_MAJOR_VERSI
Cover : Yes
Cover type : Cover (front)
Cover MIME : image/png
Audio
Format : MPEG Audio
Format version : Version 1
Format profile : Layer 3
Duration : 3mn 16s
Bit rate mode : Constant
Bit rate : 320 Kbps
Channel count : 2 channels
Sampling rate : 48.0 KHz
Compression mode : Lossy
Stream size : 7.49 MiB (95%)
Writing library : LAMELAME_MAJOR_VERSI
Plz Visit: BibekBohidarMusic.co.nr/

Server:
Kickasstorrents

Format : MPEG Audio
File size : 7.85 MiB
Duration : 3mn 16s
Overall bit rate mode : Constant
Overall bit rate : 320 Kbps
Album : Sex + Love
Album/Performer : Enrique Iglesias
Track name : There Goes My Baby
Track name/Position : 1
Performer : Enrique Iglesias Feat. Flo Rida
Composer : Enrique Iglesias
Encoded by : BibekBohidar
Genre : Pop
Recorded date : 2014
Writing library : LAMELAME_MAJOR_VERSI
Cover : Yes
Cover type : Cover (front)
Cover MIME : image/png
Audio
Format : MPEG Audio
Format version : Version 1
Format profile : Layer 3
Duration : 3mn 16s
Bit rate mode : Constant
Bit rate : 320 Kbps
Channel count : 2 channels
Sampling rate : 48.0 KHz
Compression mode : Lossy
Stream size : 7.49 MiB (95%)
Writing library : LAMELAME_MAJOR_VERSI
Plz Visit: BibekBohidarMusic.co.nr
_scq.push();
Sharing Widget
Download torrent
7.85 MB
seeders:69
leechers:0

Server:
GlodlsTo

Format : MPEG Audio
File size : 7.85 MiB
Duration : 3mn 16s
Overall bit rate mode : Constant
Overall bit rate : 320 Kbps
Album : Sex + Love
Album/Performer : Enrique Iglesias
Track name : There Goes My Baby
Track name/Position : 1
Performer : Enrique Iglesias Feat. Flo Rida
Composer : Enrique Iglesias
Encoded by : BibekBohidar
Genre : Pop
Recorded date : 2014
Writing library : LAMELAME_MAJOR_VERSI
Cover : Yes
Cover type : Cover (front)
Cover MIME : image/png
Audio
Format : MPEG Audio
Format version : Version 1
Format profile : Layer 3
Duration : 3mn 16s
Bit rate mode : Constant
Bit rate : 320 Kbps
Channel count : 2 channels
Sampling rate : 48.0 KHz
Compression mode : Lossy
Stream size : 7.49 MiB (95%)
Writing library : LAMELAME_MAJOR_VERSI
Plz Visit: BibekBohidarMusic.co.
nr/