picktorrent picktorrent engine
LOGIN REGISTER

Impressive Torrents Picker

ADD     picktorrent  to search engine list

Security note: Downloading torrents is getting riskier everyday. We strongly recommend our users to use SpyOFF VPN to make themselves anonymous while downloading torrents. By using SpyOFF VPN, your ISPs and Government agencies will not be able to spy on you neither would they be able to track your online activities.

Try it for free

Download torrent:
"Eroticon 2002 Gangbang Competition (XXX)(iPod,PSP,Zune)"

Size: 245 MB
Category: Video > XXX
Date: 2011-02-10 06:44:02
Seeders: 0
Leechers: 0
Download This Torrent Magnet Link
We picked this "Eroticon 2002 Gangbang Competition (XXX)(iPod,PSP,Zune)" on: Kickasstorrents, Dl4all, Filesh, Torrentfunk, Sumotorrent

Description

																					

Server:
Kickasstorrents

Klaudia Figura originally from Poland had sex with 646 men in on February 10th, 2002 at the First Annual World Gangbang Championship in Warsaw, Poland. 200 people viewed the event live on a large video screen.
Screenshots
http://d9dee557.picbucks.com
http://bdd8eb32.picbucks.com
Video
ID : 1
Format : AVC
Format/Info : Advanced Video Codec
Format profile : Baseline@L1.3
Format settings, CABAC : No
Format settings, ReFrames : 2 frames
Codec ID : avc1
Codec ID/Info : Advanced Video Coding
Duration : 1h 21mn
Bit rate mode : Variable
Bit rate : 350 Kbps
Width : 364 pixels
Height : 272 pixels
Display aspect ratio : 4:3
Frame rate mode : Variable
Frame rate : 23.976 fps
Minimum frame rate : 23.974 fps
Maximum frame rate : 23.981 fps
Color space : YUV
Chroma subsampling : 4:2:0
Bit depth : 8 bits
Scan type : Progressive
Bits/(Pixel*Frame) : 0.147
Stream size : 205 MiB (84%)
Writing library : x264 core 112
Audio
ID : 2
Format : AAC
Format/Info : Advanced Audio Codec
Format profile : LC
Codec ID : 40
Duration : 1h 21mn
Bit rate mode : Variable
Bit rate : 64.2 Kbps
Maximum bit rate : 110 Kbps
Channel(s) : 2 channels
Channel positions : Front: L R
Sampling rate : 48.0 KHz
Compression mode : Lossy
Stream size : 37.6 MiB (15%)
Screenshots
http://d9dee557.picbucks.com
http://bdd8eb32.picbucks.com
More Torrents...
http://thepiratebay.org/user/punter21/
_scq.push();
Sharing Widget
Download torrent
245.43 MB
seeders:2
leechers:0

Server:
Dl4all

Klaudia Figura originally from Poland had sex with 646 men in on February 10th, 2002 at the First Annual World Gangbang Championship in Warsaw, Poland. 200 people viewed the event live on a large video screen.
Screenshots
http://d9dee557.picbucks.com
http://bdd8eb32.picbucks.com
Video
ID : 1
Format : AVC
Format/Info : Advanced Video Codec
Format profile : Baseline@L1.3
Format settings, CABAC : No
Format settings, ReFrames : 2 frames
Codec ID : avc1
Codec ID/Info : Advanced Video Coding
Duration : 1h 21mn
Bit rate mode : Variable
Bit rate : 350 Kbps
Width : 364 pixels
Height : 272 pixels
Display aspect ratio : 4:3
Frame rate mode : Variable
Frame rate : 23.976 fps
Minimum frame rate : 23.974 fps
Maximum frame rate : 23.981 fps
Color space : YUV
Chroma subsampling : 4:2:0
Bit depth : 8 bits
Scan type : Progressive
Bits/(Pixel*Frame) : 0.147
Stream size : 205 MiB (84%)
Writing library : x264 core 112
Audio
ID : 2
Format : AAC
Format/Info : Advanced Audio Codec
Format profile : LC
Codec ID : 40
Duration : 1h 21mn
Bit rate mode : Variable
Bit rate : 64.2 Kbps
Maximum bit rate : 110 Kbps
Channel(s) : 2 channels
Channel positions : Front: L R
Sampling rate : 48.0 KHz
Compression mode : Lossy
Stream size : 37.6 MiB (15%)
Screenshots
http://d9dee557.picbucks.com
http://bdd8eb32.picbucks.com
More Torrents...
http://thepiratebay.org/user/punter21/