picktorrent picktorrent engine
LOGIN REGISTER

Impressive Torrents Picker

ADD     picktorrent  to search engine list

Security note: Downloading torrents is getting riskier everyday. We strongly recommend our users to use SpyOFF VPN to make themselves anonymous while downloading torrents. By using SpyOFF VPN, your ISPs and Government agencies will not be able to spy on you neither would they be able to track your online activities.

Try it for free

Download torrent:
"[ZippyMoviez.Com] Exodus Gods And Kings 2014 HDCAM AVC English (New Source) Team ZMZ"

Size: 785 MB
Category: Other > Unsorted
Date: 2014-12-18 11:03:17
Seeders: 0
Leechers: 0
Download This Torrent Magnet Link
We picked this "[ZippyMoviez.Com] Exodus Gods And Kings 2014 HDCAM AVC English (New Source) Team ZMZ" on: Torrentroom, Btscene, A2ZTorrent, Limetorrents, Bitsnoop, Seedpeer, Torrentfunk, GlodlsTo, Monova

Description

																					

Server:
Btscene

http://www.imdb.com/title/tt1528100/
The defiant leader Moses rises up against the Egyptian Pharaoh Ramses, setting 600,000 slaves on a monumental journey of escape from Egypt and its terrifying cycle of deadly plagues.
Director: Ridley Scott
Writers: Adam Cooper, Bill Collage, 2 more credits »
Stars: Christian Bale, Joel Edgerton, Ben Kingsley | See full cast and crew »
General
Complete name : Exodus Gods And Kings 2014 HDCAM English (New Source).mp4
Format : MPEG-4
Format profile : Base Media / Version 2
Codec ID : mp42
File size : 785 MiB
Duration : 2h 20mn
Overall bit rate mode : Variable
Overall bit rate : 784 Kbps
Writing application : HandBrake 0.10.0 2014112200
Video
ID : 1
Format : AVC
Format/Info : Advanced Video Codec
Format profile : Main@L4.0
Format settings, CABAC : Yes
Format settings, ReFrames : 4 frames
Codec ID : avc1
Codec ID/Info : Advanced Video Coding
Duration : 2h 20mn
Bit rate : 613 Kbps
Width : 712 pixels
Height : 296 pixels
Display aspect ratio : 2.40:1
Frame rate mode : Variable
Frame rate : 59.940 fps
Minimum frame rate : 59.880 fps
Maximum frame rate : 60.160 fps
Color space : YUV
Chroma subsampling : 4:2:0
Bit depth : 8 bits
Scan type : Progressive
Bits/(Pixel*Frame) : 0.048
Stream size : 613 MiB (78%)
Writing library : x264 core 142 r2479 dd79a61
Encoding settings : cabac=1 / ref=1 / deblock=1:0:0 / analyse=0x1:0x111 / me=hex / subme=2 / psy=1 / psy_rd=1.00:0.00 / mixed_ref=0 / me_range=16 / chroma_me=1 / trellis=0 / 8x8dct=0 / cqm=0 / deadzone=21,11 / fast_pskip=1 / chroma_qp_offset=0 / threads=6 / lookahead_threads=2 / sliced_threads=0 / nr=0 / decimate=1 / interlaced=0 / bluray_compat=0 / constrained_intra=0 / bframes=3 / b_pyramid=2 / b_adapt=1 / b_bias=0 / direct=1 / weightb=1 / open_gop=0 / weightp=1 / keyint=600 / keyint_min=60 / scenecut=40 / intra_refresh=0 / rc_lookahead=10 / rc=crf / mbtree=1 / crf=20.0 / qcomp=0.60 / qpmin=0 / qpmax=69 / qpstep=4 / vbv_maxrate=20000 / vbv_bufsize=25000 / crf_max=0.0 / nal_hrd=none / filler=0 / ip_ratio=1.40 / aq=1:1.00
Color primaries : BT.709
Transfer characteristics : BT.709
Matrix coefficients : BT.709
Color range : Limited
Audio
ID : 2
Format : AAC
Format/Info : Advanced Audio Codec
Format profile : LC
Codec ID : 40
Duration : 2h 20mn
Bit rate mode : Variable
Bit rate : 160 Kbps
Channel(s) : 2 channels
Channel positions : Front: L R
Sampling rate : 48.0 KHz
Compression mode : Lossy
Stream size : 160 MiB (20%)
Title : Stereo / Stereo
Text
ID : 3
Format : Timed Text
Muxing mode : sbtl
Codec ID : tx3g
Duration : 1mn 0s
Duration_FirstFrame : -56s 133ms
Bit rate mode : Variable
Bit rate : 3 bps
Stream size : 19.0 Bytes (0%)
Language : English
Screens
http://microimg.biz/imgs/img-5492fc7190a6a.html
http://microimg.biz/imgs/img-5492fc82d8f0c.html
http://microimg.biz/imgs/img-5492fc9395178.html
http://microimg.biz/imgs/img-5492fca214f02.html

Server:
Limetorrents

http://www.imdb.com/title/tt1528100/ The defiant leader Moses rises up against the Egyptian Pharaoh
Ramses, setting 600,000 slaves on a monumental journey of escape from Egypt and its terrifying cycle of deadly
plagues. Director: Ridley Scott Writers: Adam Cooper, Bill Collage, 2 more credits »
Stars: Christian Bale, Joel Edgerton, Ben Kingsley | See full cast and crew » General Complete
name : Exodus Gods And Kings 2014 HDCAM English (New Source).mp4 Format : MPEG-4 Format
profile : Base Media / Version 2 Codec ID : mp42 File size : 785 MiB Duration : 2h 20mn
Overall bit rate mode : Variable Overall bit rate : 784 Kbps Writing application : HandBrake 0.10.0
2014112200 Video ID : 1 Format : AVC Format/Info : Advanced Video Codec
Format profile : Main@L4.0 Format settings, CABAC : Yes Format settings, ReFrames : 4 frames Codec
ID : avc1 Codec ID/Info : Advanced Video Coding Duration : 2h 20mn Bit rate : 613 Kbps Width
: 712 pixels Height : 296 pixels Display aspect ratio : 2.40:1 Frame rate mode : Variable
Frame rate : 59.940 fps Minimum frame rate : 59.880 fps Maximum frame rate : 60.160 fps Color space
: YUV Chroma subsampling : 4:2:0 Bit depth : 8 bits Scan type : Progressive
Bits/(Pixel*Frame) : 0.048 Stream size : 613 MiB (78%) Writing library : x264 core 142 r2479 dd79a61
Encoding settings : cabac=1 / ref=1 / deblock=1:0:0 / analyse=0x1:0x111 / me=hex / subme=2 / psy=1 / psy_rd=1.00:0.00 /
mixed_ref=0 / me_range=16 / chroma_me=1 / trellis=0 / 8x8dct=0 / cqm=0 / deadzone=21,11 / fast_pskip=1 /
chroma_qp_offset=0 / threads=6 / lookahead_threads=2 / sliced_threads=0 / nr=0 / decimate=1 / interlaced=0 /
bluray_compat=0 / constrained_intra=0 / bframes=3 / b_pyramid=2 / b_adapt=1 / b_bias=0 / direct=1 / weightb=1 /
open_gop=0 / weightp=1 / keyint=600 / keyint_min=60 / scenecut=40 / intra_refresh=0 / rc_lookahead=10 / rc=crf /
mbtree=1 / crf=20.0 / qcomp=0.60 / qpmin=0 / qpmax=69 / qpstep=4 / vbv_maxrate=20000 / vbv_bufsize=25000 / crf_max=0.0 /
nal_hrd=none / filler=0 / ip_ratio=1.40 / aq=1:1.00 Color primaries : BT.709 Transfer characteristics :
BT.709 Matrix coefficients : BT.709 Color range : Limited Audio ID : 2 Format
: AAC Format/Info : Advanced Audio Codec Format profile : LC Codec ID : 40 Duration : 2h
20mn Bit rate mode : Variable Bit rate : 160 Kbps Channel(s) : 2 channels Channel positions
: Front: L R Sampling rate : 48.0 KHz Compression mode : Lossy Stream size : 160 MiB (20%)
Title : Stereo / Stereo Text ID : 3 Format : Timed Text Muxing mode : sbtl
Codec ID : tx3g Duration : 1mn 0s Duration_FirstFrame : -56s 133ms Bit rate mode : Variable
Bit rate : 3 bps Stream size : 19.0 Bytes (0%) Language : English Screens http://microimg.biz/imgs/img-5492fc7190a6a.html
http://microimg.biz/imgs/img-5492fc82d8f0c.html http://microimg.biz/imgs/img-5492fc9395178.html
http://microimg.biz/imgs/img-5492fca214f02.html

Server:
GlodlsTo

No description available.