picktorrent picktorrent engine
LOGIN REGISTER

Impressive Torrents Picker

ADD     picktorrent  to search engine list

Security note: Downloading torrents is getting riskier everyday. We strongly recommend our users to use SpyOFF VPN to make themselves anonymous while downloading torrents. By using SpyOFF VPN, your ISPs and Government agencies will not be able to spy on you neither would they be able to track your online activities.

Try it for free

Download torrent:
"Exodus Gods And Kings H264 Ita Eng Sub Ita Eng MIRCrew"

Size: 2 GB
Category: Video > BD > HD > X264
Date: 2015-05-14 16:44:13
Seeders: 0
Leechers: 0
Download This Torrent Magnet Link
We picked this "Exodus Gods And Kings H264 Ita Eng Sub Ita Eng MIRCrew" on: Ahashare, Btscene, Kickasstorrents, Torrentroom, Sumotorrent, Limetorrents, Bitsnoop, Torrentfunk

Description

																					

Server:
Ahashare

Exodus Gods and Kings - Exodus Dei E Re (2014).BDrip.H264 - Italian English.Ac3.5.1.Sub.Ita.Eng.MIRCrew
NO FOUND ONLY ORIGINAL RELEASE
Exodus Dei E Re - Exodus Gods and Kings (2014)
Titolo originale Exodus: Gods and Kings
Lingua originale inglese
Paese di produzione USA, Regno Unito, Spagna
Anno 2014
Durata 150 min
Rapporto 2.35:1
Genere biblico, fantastico
Regia Ridley Scott
Soggetto Libro dell'Esodo
Sceneggiatura Adam Cooper, Steven Zaillian, Bill Collage, Jeffrey Caine
Produttore Peter Chernin, Ridley Scott, Jenno Topping, Michael Schaffer, Mark Huffam
Casa di produzione Chernin Entertainment
Scott Free Productions
Babieka
Volcano Films
Distribuzione (Italia) 20th Century Fox
Fotografia Dariusz Wolski
Montaggio Billy Rich
Musiche Alberto Iglesias
Scenografia Arthur Max
Costumi Janty Yates
Christian Bale: Mosè
Joel Edgerton: Ramses
Aaron Paul: Giosuè
John Turturro: Seti
Ben Kingsley: Nun
Sigourney Weaver: Tuya
Tara Fitzgerald: Miriam
María Valverde: Séfora
Hiam Abbass: Bithia
Golshifteh Farahani: Nefertari
Ben Mendelsohn: Hagep
Kevork Malikyan: Jethro
Isaac Andrews: Malak
Dar Salim: Khyan
Andrew Tarbet: Aronne
Ghassan Massoud: Gran visir
.
Gli eventi narrati traggono ispirazione dal libro dell'Esodo e raccontano la partenza del popolo di Israele dall'Egitto, dove era tenuto in schiavitù. Mosé, "colui che è stato salvato dalle acque", nacque dagli israeliti Amram e Iochebed. Scampato alla persecuzione voluta dal Faraone, venne salvato dalla sorella nubile di quest'ultimo ed educato nella corte egizia, dove si guadagnò la fiducia del faraone Seti, fino a diventare generale dell'esercito...........
Epic adventure Exodus: Gods and Kings is the story of one man's daring courage to take on the might of an empire. Using state of the art visual effects and 3D immersion, Scott brings new life to the story of the defiant leader Moses as he rises up against the Egyptian Pharaoh Ramses, setting 600,000 slaves on a monumental journey of escape from Egypt and its terrifying cycle of deadly plagues.......
General
Unique ID : 339186320930567143675764650696722993953 (0xFF2CE8C2AF9A5CA094094ED20279D321)
Complete name : Exodus Gods and Kings.H264.ita.eng.sub.ita.eng.MIRCrew.mkv
Format : Matroska
Format version : Version 2
File size : 2.02 GiB
Duration : 2h 30mn
Overall bit rate : 1 921 Kbps
Encoded date : UTC 2015-04-14 11:57:47
Writing application : Lavf54.63.100
Writing library : Lavf54.63.100
Video
ID : 1
Format : AVC
Format/Info : Advanced Video Codec
Format profile : Main@L4.1
Format settings, CABAC : Yes
Format settings, ReFrames : 2 frames
Codec ID : V_MPEG4/ISO/AVC
Duration : 2h 30mn
Bit rate : 1 150 Kbps
Width : 720 pixels
Height : 300 pixels
Display aspect ratio : 2.40:1
Frame rate mode : Variable
Frame rate : 23.976 fps
Color space : YUV
Chroma subsampling : 4:2:0
Bit depth : 8 bits
Scan type : Progressive
Bits/(Pixel*Frame) : 0.222
Stream size : 1.17 GiB (58%)
Writing library : x264 core 130 r2273
Encoding settings : cabac=1 / ref=2 / deblock=1:0:0 / analyse=0x1:0x131 / me=hex / subme=7 / psy=1 / psy_rd=1.00:0.00 / mixed_ref=0 / me_range=16 / chroma_me=1 / trellis=1 / 8x8dct=0 / cqm=0 / deadzone=21,11 / fast_pskip=1 / chroma_qp_offset=-2 / threads=12 / lookahead_threads=2 / sliced_threads=0 / nr=0 / decimate=1 / interlaced=0 / bluray_compat=0 / constrained_intra=0 / bframes=3 / b_pyramid=0 / b_adapt=1 / b_bias=0 / direct=3 / weightb=1 / open_gop=0 / weightp=2 / keyint=230 / keyint_min=23 / scenecut=40 / intra_refresh=0 / rc_lookahead=40 / rc=abr / mbtree=1 / bitrate=1150 / ratetol=1.0 / qcomp=0.60 / qpmin=10 / qpmax=69 / qpstep=4 / vbv_maxrate=24000 / vbv_bufsize=24000 / nal_hrd=none / ip_ratio=1.40 / aq=1:1.00
Default : Yes
Forced : No
DURATION : 02:30:12.587000000
NUMBER_OF_FRAMES : 216086
NUMBER_OF_BYTES : 9912805661
_STATISTICS_WRITING_APP : mkvmerge v7.8.0 ('River Man') 32bit built on Mar 27 2015 16:18:02
_STATISTICS_WRITING_DATE_UTC : 2015-04-14 11:57:47
_STATISTICS_TAGS : BPS DURATION NUMBER_OF_FRAMES NUMBER_OF_BYTES
Audio #1
ID : 2
Format : AC-3
Format/Info : Audio Coding 3
Mode extension : CM (complete main)
Codec ID : A_AC3
Duration : 2h 30mn
Bit rate mode : Constant
Bit rate : 384 Kbps
Channel(s) : 6 channels
Channel positions : Front: L C R, Side: L R, LFE
Sampling rate : 48.0 KHz
Bit depth : 16 bits
Compression mode : Lossy
Delay relative to video : 1mn 5s
Stream size : 413 MiB (20%)
Title : Ita. AC3 640 Kbps
Language : Italian
Default : No
Forced : No
DURATION : 02:30:12.608000000
NUMBER_OF_FRAMES : 281644
NUMBER_OF_BYTES : 721008640
_STATISTICS_WRITING_APP : mkvmerge v7.8.0 ('River Man') 32bit built on Mar 27 2015 16:18:02
_STATISTICS_WRITING_DATE_UTC : 2015-04-14 11:57:47
_STATISTICS_TAGS : BPS DURATION NUMBER_OF_FRAMES NUMBER_OF_BYTES
Audio #2
ID : 3
Format : AC-3
Format/Info : Audio Coding 3
Mode extension : CM (complete main)
Codec ID : A_AC3
Duration : 2h 30mn
Bit rate mode : Constant
Bit rate : 384 Kbps
Channel(s) : 6 channels
Channel positions : Front: L C R, Side: L R, LFE
Sampling rate : 48.0 KHz
Bit depth : 16 bits
Compression mode : Lossy
Delay relative to video : 1mn 5s
Stream size : 413 MiB (20%)
Title : Eng. DTS 1510 Kbps
Language : English
Default : No
Forced : No
DURATION : 02:30:12.598000000
NUMBER_OF_FRAMES : 844931
NUMBER_OF_BYTES : 1700001288
_STATISTICS_WRITING_APP : mkvmerge v7.8.0 ('River Man') 32bit built on Mar 27 2015 16:18:02
_STATISTICS_WRITING_DATE_UTC : 2015-04-14 11:57:47
_STATISTICS_TAGS : BPS DURATION NUMBER_OF_FRAMES NUMBER_OF_BYTES
Text #1
ID : 4
Format : ASS
Codec ID : S_TEXT/ASS
Codec ID/Info : Advanced Sub Station Alpha
Compression mode : Lossless
Title : Sub. Ita. Forced
Language : Italian
Default : Yes
Forced : Yes
DURATION : 02:22:16.110000000
NUMBER_OF_FRAMES : 13
NUMBER_OF_BYTES : 340
_STATISTICS_WRITING_APP : mkvmerge v7.8.0 ('River Man') 32bit built on Mar 27 2015 16:18:02
_STATISTICS_WRITING_DATE_UTC : 2015-04-14 11:57:47
_STATISTICS_TAGS : BPS DURATION NUMBER_OF_FRAMES NUMBER_OF_BYTES
Text #2
ID : 5
Format : ASS
Codec ID : S_TEXT/ASS
Codec ID/Info : Advanced Sub Station Alpha
Compression mode : Lossless
Title : Sub. Eng.
Language : English
Default : No
Forced : No
DURATION : 02:19:12.886000000
NUMBER_OF_FRAMES : 1238
NUMBER_OF_BYTES : 30428
_STATISTICS_WRITING_APP : mkvmerge v7.8.0 ('River Man') 32bit built on Mar 27 2015 16:18:02
_STATISTICS_WRITING_DATE_UTC : 2015-04-14 11:57:47
_STATISTICS_TAGS : BPS DURATION NUMBER_OF_FRAMES NUMBER_OF_BYTES
Text #3
ID : 6
Format : ASS
Codec ID : S_TEXT/ASS
Codec ID/Info : Advanced Sub Station Alpha
Compression mode : Lossless
Title : Sub. Ita.
Language : Italian
Default : No
Forced : No
DURATION : 02:22:16.110000000
NUMBER_OF_FRAMES : 1251
NUMBER_OF_BYTES : 32645
_STATISTICS_WRITING_APP : mkvmerge v7.8.0 ('River Man') 32bit built on Mar 27 2015 16:18:02
_STATISTICS_WRITING_DATE_UTC : 2015-04-14 11:57:47
_STATISTICS_TAGS : BPS DURATION NUMBER_OF_FRAMES NUMBER_OF_BYTES
Text #4
ID : 7
Format : ASS
Codec ID : S_TEXT/ASS
Codec ID/Info : Advanced Sub Station Alpha
Compression mode : Lossless
Title : Sub. Eng. Not Hearing
Language : English
Default : No
Forced : No
DURATION : 02:21:06.758000000
NUMBER_OF_FRAMES : 1646
NUMBER_OF_BYTES : 38257
_STATISTICS_WRITING_APP : mkvmerge v7.8.0 ('River Man') 32bit built on Mar 27 2015 16:18:02
_STATISTICS_WRITING_DATE_UTC : 2015-04-14 11:57:47
_STATISTICS_TAGS : BPS DURATION NUMBER_OF_FRAMES NUMBER_OF_BYTES
Menu
00:00:00.000 : :00:00:00.000
00:03:55.402 : :00:03:55.402
00:06:51.995 : :00:06:51.995
00:11:47.707 : :00:11:47.707
00:14:29.452 : :00:14:29.452
00:18:37.658 : :00:18:37.658
00:22:15.834 : :00:22:15.834
00:26:51.151 : :00:26:51.151
00:30:31.288 : :00:30:31.288
00:36:41.366 : :00:36:41.366
00:40:48.321 : :00:40:48.321
00:44:49.937 : :00:44:49.937
00:48:47.800 : :00:48:47.800
00:51:16.448 : :00:51:16.448
00:54:22.217 : :00:54:22.217
00:57:32.658 : :00:57:32.658
01:00:31.169 : :01:00:31.169
01:04:41.544 : :01:04:41.544
01:06:49.047 : :01:06:49.047
01:11:01.883 : :01:11:01.883
01:16:53.692 : :01:16:53.692
01:21:18.040 : :01:21:18.040
01:24:30.357 : :01:24:30.357
01:28:08.533 : :01:28:08.533
01:30:54.157 : :01:30:54.157
01:34:14.566 : :01:34:14.566
01:37:20.543 : :01:37:20.543
01:39:20.204 : :01:39:20.204
01:42:40.321 : :01:42:40.321
01:46:50.070 : :01:46:50.070
01:49:02.661 : :01:49:02.661
01:52:18.315 : :01:52:18.315
01:57:29.876 : :01:57:29.876
02:00:23.842 : :02:00:23.842
02:05:41.325 : :02:05:41.325
02:07:31.269 : :02:07:31.269
02:13:38.469 : :02:13:38.469
02:16:21.882 : :02:16:21.882
02:19:39.997 : :02:19:39.997
02:23:19.800 : :02:23:19.800

Server:
Btscene

Exodus Gods and Kings - Exodus Dei E Re (2014).BDrip.H264 - Italian English.Ac3.5.1.Sub.Ita.Eng.MIRCrew
NO FOUND ONLY ORIGINAL RELEASE
Exodus Dei E Re - Exodus Gods and Kings (2014)
Titolo originale Exodus: Gods and Kings
Lingua originale inglese
Paese di produzione USA, Regno Unito, Spagna
Anno 2014
Durata 150 min
Rapporto 2.35:1
Genere biblico, fantastico
Regia Ridley Scott
Soggetto Libro dell'Esodo
Sceneggiatura Adam Cooper, Steven Zaillian, Bill Collage, Jeffrey Caine
Produttore Peter Chernin, Ridley Scott, Jenno Topping, Michael Schaffer, Mark Huffam
Casa di produzione Chernin Entertainment
Scott Free Productions
Babieka
Volcano Films
Distribuzione (Italia) 20th Century Fox
Fotografia Dariusz Wolski
Montaggio Billy Rich
Musiche Alberto Iglesias
Scenografia Arthur Max
Costumi Janty Yates
Christian Bale: Mosè
Joel Edgerton: Ramses
Aaron Paul: Giosuè
John Turturro: Seti
Ben Kingsley: Nun
Sigourney Weaver: Tuya
Tara Fitzgerald: Miriam
María Valverde: Séfora
Hiam Abbass: Bithia
Golshifteh Farahani: Nefertari
Ben Mendelsohn: Hagep
Kevork Malikyan: Jethro
Isaac Andrews: Malak
Dar Salim: Khyan
Andrew Tarbet: Aronne
Ghassan Massoud: Gran visir
.
Gli eventi narrati traggono ispirazione dal libro dell'Esodo e raccontano la partenza del popolo di Israele dall'Egitto, dove era tenuto in schiavitù. Mosé, "colui che è stato salvato dalle acque", nacque dagli israeliti Amram e Iochebed. Scampato alla persecuzione voluta dal Faraone, venne salvato dalla sorella nubile di quest'ultimo ed educato nella corte egizia, dove si guadagnò la fiducia del faraone Seti, fino a diventare generale dell'esercito...........
Epic adventure Exodus: Gods and Kings is the story of one man's daring courage to take on the might of an empire. Using state of the art visual effects and 3D immersion, Scott brings new life to the story of the defiant leader Moses as he rises up against the Egyptian Pharaoh Ramses, setting 600,000 slaves on a monumental journey of escape from Egypt and its terrifying cycle of deadly plagues.......
General
Unique ID : 339186320930567143675764650696722993953 (0xFF2CE8C2AF9A5CA094094ED20279D321)
Complete name : Exodus Gods and Kings.H264.ita.eng.sub.ita.eng.MIRCrew.mkv
Format : Matroska
Format version : Version 2
File size : 2.02 GiB
Duration : 2h 30mn
Overall bit rate : 1 921 Kbps
Encoded date : UTC 2015-04-14 11:57:47
Writing application : Lavf54.63.100
Writing library : Lavf54.63.100
Video
ID : 1
Format : AVC
Format/Info : Advanced Video Codec
Format profile : Main@L4.1
Format settings, CABAC : Yes
Format settings, ReFrames : 2 frames
Codec ID : V_MPEG4/ISO/AVC
Duration : 2h 30mn
Bit rate : 1 150 Kbps
Width : 720 pixels
Height : 300 pixels
Display aspect ratio : 2.40:1
Frame rate mode : Variable
Frame rate : 23.976 fps
Color space : YUV
Chroma subsampling : 4:2:0
Bit depth : 8 bits
Scan type : Progressive
Bits/(Pixel*Frame) : 0.222
Stream size : 1.17 GiB (58%)
Writing library : x264 core 130 r2273
Encoding settings : cabac=1 / ref=2 / deblock=1:0:0 / analyse=0x1:0x131 / me=hex / subme=7 / psy=1 / psy_rd=1.00:0.00 / mixed_ref=0 / me_range=16 / chroma_me=1 / trellis=1 / 8x8dct=0 / cqm=0 / deadzone=21,11 / fast_pskip=1 / chroma_qp_offset=-2 / threads=12 / lookahead_threads=2 / sliced_threads=0 / nr=0 / decimate=1 / interlaced=0 / bluray_compat=0 / constrained_intra=0 / bframes=3 / b_pyramid=0 / b_adapt=1 / b_bias=0 / direct=3 / weightb=1 / open_gop=0 / weightp=2 / keyint=230 / keyint_min=23 / scenecut=40 / intra_refresh=0 / rc_lookahead=40 / rc=abr / mbtree=1 / bitrate=1150 / ratetol=1.0 / qcomp=0.60 / qpmin=10 / qpmax=69 / qpstep=4 / vbv_maxrate=24000 / vbv_bufsize=24000 / nal_hrd=none / ip_ratio=1.40 / aq=1:1.00
Default : Yes
Forced : No
DURATION : 02:30:12.587000000
NUMBER_OF_FRAMES : 216086
NUMBER_OF_BYTES : 9912805661
_STATISTICS_WRITING_APP : mkvmerge v7.8.0 ('River Man') 32bit built on Mar 27 2015 16:18:02
_STATISTICS_WRITING_DATE_UTC : 2015-04-14 11:57:47
_STATISTICS_TAGS : BPS DURATION NUMBER_OF_FRAMES NUMBER_OF_BYTES
Audio #1
ID : 2
Format : AC-3
Format/Info : Audio Coding 3
Mode extension : CM (complete main)
Codec ID : A_AC3
Duration : 2h 30mn
Bit rate mode : Constant
Bit rate : 384 Kbps
Channel(s) : 6 channels
Channel positions : Front: L C R, Side: L R, LFE
Sampling rate : 48.0 KHz
Bit depth : 16 bits
Compression mode : Lossy
Delay relative to video : 1mn 5s
Stream size : 413 MiB (20%)
Title : Ita. AC3 640 Kbps
Language : Italian
Default : No
Forced : No
DURATION : 02:30:12.608000000
NUMBER_OF_FRAMES : 281644
NUMBER_OF_BYTES : 721008640
_STATISTICS_WRITING_APP : mkvmerge v7.8.0 ('River Man') 32bit built on Mar 27 2015 16:18:02
_STATISTICS_WRITING_DATE_UTC : 2015-04-14 11:57:47
_STATISTICS_TAGS : BPS DURATION NUMBER_OF_FRAMES NUMBER_OF_BYTES
Audio #2
ID : 3
Format : AC-3
Format/Info : Audio Coding 3
Mode extension : CM (complete main)
Codec ID : A_AC3
Duration : 2h 30mn
Bit rate mode : Constant
Bit rate : 384 Kbps
Channel(s) : 6 channels
Channel positions : Front: L C R, Side: L R, LFE
Sampling rate : 48.0 KHz
Bit depth : 16 bits
Compression mode : Lossy
Delay relative to video : 1mn 5s
Stream size : 413 MiB (20%)
Title : Eng. DTS 1510 Kbps
Language : English
Default : No
Forced : No
DURATION : 02:30:12.598000000
NUMBER_OF_FRAMES : 844931
NUMBER_OF_BYTES : 1700001288
_STATISTICS_WRITING_APP : mkvmerge v7.8.0 ('River Man') 32bit built on Mar 27 2015 16:18:02
_STATISTICS_WRITING_DATE_UTC : 2015-04-14 11:57:47
_STATISTICS_TAGS : BPS DURATION NUMBER_OF_FRAMES NUMBER_OF_BYTES
Text #1
ID : 4
Format : ASS
Codec ID : S_TEXT/ASS
Codec ID/Info : Advanced Sub Station Alpha
Compression mode : Lossless
Title : Sub. Ita. Forced
Language : Italian
Default : Yes
Forced : Yes
DURATION : 02:22:16.110000000
NUMBER_OF_FRAMES : 13
NUMBER_OF_BYTES : 340
_STATISTICS_WRITING_APP : mkvmerge v7.8.0 ('River Man') 32bit built on Mar 27 2015 16:18:02
_STATISTICS_WRITING_DATE_UTC : 2015-04-14 11:57:47
_STATISTICS_TAGS : BPS DURATION NUMBER_OF_FRAMES NUMBER_OF_BYTES
Text #2
ID : 5
Format : ASS
Codec ID : S_TEXT/ASS
Codec ID/Info : Advanced Sub Station Alpha
Compression mode : Lossless
Title : Sub. Eng.
Language : English
Default : No
Forced : No
DURATION : 02:19:12.886000000
NUMBER_OF_FRAMES : 1238
NUMBER_OF_BYTES : 30428
_STATISTICS_WRITING_APP : mkvmerge v7.8.0 ('River Man') 32bit built on Mar 27 2015 16:18:02
_STATISTICS_WRITING_DATE_UTC : 2015-04-14 11:57:47
_STATISTICS_TAGS : BPS DURATION NUMBER_OF_FRAMES NUMBER_OF_BYTES
Text #3
ID : 6
Format : ASS
Codec ID : S_TEXT/ASS
Codec ID/Info : Advanced Sub Station Alpha
Compression mode : Lossless
Title : Sub. Ita.
Language : Italian
Default : No
Forced : No
DURATION : 02:22:16.110000000
NUMBER_OF_FRAMES : 1251
NUMBER_OF_BYTES : 32645
_STATISTICS_WRITING_APP : mkvmerge v7.8.0 ('River Man') 32bit built on Mar 27 2015 16:18:02
_STATISTICS_WRITING_DATE_UTC : 2015-04-14 11:57:47
_STATISTICS_TAGS : BPS DURATION NUMBER_OF_FRAMES NUMBER_OF_BYTES
Text #4
ID : 7
Format : ASS
Codec ID : S_TEXT/ASS
Codec ID/Info : Advanced Sub Station Alpha
Compression mode : Lossless
Title : Sub. Eng. Not Hearing
Language : English
Default : No
Forced : No
DURATION : 02:21:06.758000000
NUMBER_OF_FRAMES : 1646
NUMBER_OF_BYTES : 38257
_STATISTICS_WRITING_APP : mkvmerge v7.8.0 ('River Man') 32bit built on Mar 27 2015 16:18:02
_STATISTICS_WRITING_DATE_UTC : 2015-04-14 11:57:47
_STATISTICS_TAGS : BPS DURATION NUMBER_OF_FRAMES NUMBER_OF_BYTES
Menu
00:00:00.000 : :00:00:00.000
00:03:55.402 : :00:03:55.402
00:06:51.995 : :00:06:51.995
00:11:47.707 : :00:11:47.707
00:14:29.452 : :00:14:29.452
00:18:37.658 : :00:18:37.658
00:22:15.834 : :00:22:15.834
00:26:51.151 : :00:26:51.151
00:30:31.288 : :00:30:31.288
00:36:41.366 : :00:36:41.366
00:40:48.321 : :00:40:48.321
00:44:49.937 : :00:44:49.937
00:48:47.800 : :00:48:47.800
00:51:16.448 : :00:51:16.448
00:54:22.217 : :00:54:22.217
00:57:32.658 : :00:57:32.658
01:00:31.169 : :01:00:31.169
01:04:41.544 : :01:04:41.544
01:06:49.047 : :01:06:49.047
01:11:01.883 : :01:11:01.883
01:16:53.692 : :01:16:53.692
01:21:18.040 : :01:21:18.040
01:24:30.357 : :01:24:30.357
01:28:08.533 : :01:28:08.533
01:30:54.157 : :01:30:54.157
01:34:14.566 : :01:34:14.566
01:37:20.543 : :01:37:20.543
01:39:20.204 : :01:39:20.204
01:42:40.321 : :01:42:40.321
01:46:50.070 : :01:46:50.070
01:49:02.661 : :01:49:02.661
01:52:18.315 : :01:52:18.315
01:57:29.876 : :01:57:29.876
02:00:23.842 : :02:00:23.842
02:05:41.325 : :02:05:41.325
02:07:31.269 : :02:07:31.269
02:13:38.469 : :02:13:38.469
02:16:21.882 : :02:16:21.882
02:19:39.997 : :02:19:39.997
02:23:19.800 : :02:23:19.800

Server:
Kickasstorrents

Exodus Gods and Kings - Exodus Dei E Re (2014).BDrip.H264 - Italian English.Ac3.5.1.Sub.Ita.Eng.MIRCrew
NO FOUND ONLY ORIGINAL RELEASE
Exodus Dei E Re - Exodus Gods and Kings (2014)
Titolo originale Exodus: Gods and Kings
Lingua originale inglese
Paese di produzione USA, Regno Unito, Spagna
Anno 2014
Durata 150 min
Rapporto 2.35:1
Genere biblico, fantastico
Regia Ridley Scott
Soggetto Libro dell'Esodo
Sceneggiatura Adam Cooper, Steven Zaillian, Bill Collage, Jeffrey Caine
Produttore Peter Chernin, Ridley Scott, Jenno Topping, Michael Schaffer, Mark Huffam
Casa di produzione Chernin Entertainment
Scott Free Productions
Babieka
Volcano Films
Distribuzione (Italia) 20th Century Fox
Fotografia Dariusz Wolski
Montaggio Billy Rich
Musiche Alberto Iglesias
Scenografia Arthur Max
Costumi Janty Yates
Christian Bale: Mosè
Joel Edgerton: Ramses
Aaron Paul: Giosuè
John Turturro: Seti
Ben Kingsley: Nun
Sigourney Weaver: Tuya
Tara Fitzgerald: Miriam
María Valverde: Séfora
Hiam Abbass: Bithia
Golshifteh Farahani: Nefertari
Ben Mendelsohn: Hagep
Kevork Malikyan: Jethro
Isaac Andrews: Malak
Dar Salim: Khyan
Andrew Tarbet: Aronne
Ghassan Massoud: Gran visir
.
Gli eventi narrati traggono ispirazione dal libro dell'Esodo e raccontano la partenza del popolo di Israele dall'Egitto, dove era tenuto in schiavitù. Mosé, "colui che è stato salvato dalle acque", nacque dagli israeliti Amram e Iochebed. Scampato alla persecuzione voluta dal Faraone, venne salvato dalla sorella nubile di quest'ultimo ed educato nella corte egizia, dove si guadagnò la fiducia del faraone Seti, fino a diventare generale dell'esercito...........
Epic adventure Exodus: Gods and Kings is the story of one man's daring courage to take on the might of an empire. Using state of the art visual effects and 3D immersion, Scott brings new life to the story of the defiant leader Moses as he rises up against the Egyptian Pharaoh Ramses, setting 600,000 slaves on a monumental journey of escape from Egypt and its terrifying cycle of deadly plagues.......
toggle spoiler
General
Unique ID : 339186320930567143675764650696722993953 (0xFF2CE8C2AF9A5CA094094ED20279D321)
Complete name : Exodus Gods and Kings.H264.ita.eng.sub.ita.eng.MIRCrew.mkv
Format : Matroska
Format version : Version 2
File size : 2.02 GiB
Duration : 2h 30mn
Overall bit rate : 1 921 Kbps
Encoded date : UTC 2015-04-14 11:57:47
Writing application : Lavf54.63.100
Writing library : Lavf54.63.100
Video
ID : 1
Format : AVC
Format/Info : Advanced Video Codec
Format profile : Main@L4.1
Format settings, CABAC : Yes
Format settings, ReFrames : 2 frames
Codec ID : V_MPEG4/ISO/AVC
Duration : 2h 30mn
Bit rate : 1 150 Kbps
Width : 720 pixels
Height : 300 pixels
Display aspect ratio : 2.40:1
Frame rate mode : Variable
Frame rate : 23.976 fps
Color space : YUV
Chroma subsampling : 4:2:0
Bit depth : 8 bits
Scan type : Progressive
Bits/(Pixel*Frame) : 0.222
Stream size : 1.17 GiB (58%)
Writing library : x264 core 130 r2273
Encoding settings : cabac=1 / ref=2 / deblock=1:0:0 / analyse=0x1:0x131 / me=hex / subme=7 / psy=1 / psy_rd=1.00:0.00 / mixed_ref=0 / me_range=16 / chroma_me=1 / trellis=1 / 8x8dct=0 / cqm=0 / deadzone=21,11 / fast_pskip=1 / chroma_qp_offset=-2 / threads=12 / lookahead_threads=2 / sliced_threads=0 / nr=0 / decimate=1 / interlaced=0 / bluray_compat=0 / constrained_intra=0 / bframes=3 / b_pyramid=0 / b_adapt=1 / b_bias=0 / direct=3 / weightb=1 / open_gop=0 / weightp=2 / keyint=230 / keyint_min=23 / scenecut=40 / intra_refresh=0 / rc_lookahead=40 / rc=abr / mbtree=1 / bitrate=1150 / ratetol=1.0 / qcomp=0.60 / qpmin=10 / qpmax=69 / qpstep=4 / vbv_maxrate=24000 / vbv_bufsize=24000 / nal_hrd=none / ip_ratio=1.40 / aq=1:1.00
Default : Yes
Forced : No
DURATION : 02:30:12.587000000
NUMBER_OF_FRAMES : 216086
NUMBER_OF_BYTES : 9912805661
_STATISTICS_WRITING_APP : mkvmerge v7.8.0 ('River Man') 32bit built on Mar 27 2015 16:18:02
_STATISTICS_WRITING_DATE_UTC : 2015-04-14 11:57:47
_STATISTICS_TAGS : BPS DURATION NUMBER_OF_FRAMES NUMBER_OF_BYTES
Audio #1
ID : 2
Format : AC-3
Format/Info : Audio Coding 3
Mode extension : CM (complete main)
Codec ID : A_AC3
Duration : 2h 30mn
Bit rate mode : Constant
Bit rate : 384 Kbps
Channel(s) : 6 channels
Channel positions : Front: L C R, Side: L R, LFE
Sampling rate : 48.0 KHz
Bit depth : 16 bits
Compression mode : Lossy
Delay relative to video : 1mn 5s
Stream size : 413 MiB (20%)
Title : Ita. AC3 640 Kbps
Language : Italian
Default : No
Forced : No
DURATION : 02:30:12.608000000
NUMBER_OF_FRAMES : 281644
NUMBER_OF_BYTES : 721008640
_STATISTICS_WRITING_APP : mkvmerge v7.8.0 ('River Man') 32bit built on Mar 27 2015 16:18:02
_STATISTICS_WRITING_DATE_UTC : 2015-04-14 11:57:47
_STATISTICS_TAGS : BPS DURATION NUMBER_OF_FRAMES NUMBER_OF_BYTES
Audio #2
ID : 3
Format : AC-3
Format/Info : Audio Coding 3
Mode extension : CM (complete main)
Codec ID : A_AC3
Duration : 2h 30mn
Bit rate mode : Constant
Bit rate : 384 Kbps
Channel(s) : 6 channels
Channel positions : Front: L C R, Side: L R, LFE
Sampling rate : 48.0 KHz
Bit depth : 16 bits
Compression mode : Lossy
Delay relative to video : 1mn 5s
Stream size : 413 MiB (20%)
Title : Eng. DTS 1510 Kbps
Language : English
Default : No
Forced : No
DURATION : 02:30:12.598000000
NUMBER_OF_FRAMES : 844931
NUMBER_OF_BYTES : 1700001288
_STATISTICS_WRITING_APP : mkvmerge v7.8.0 ('River Man') 32bit built on Mar 27 2015 16:18:02
_STATISTICS_WRITING_DATE_UTC : 2015-04-14 11:57:47
_STATISTICS_TAGS : BPS DURATION NUMBER_OF_FRAMES NUMBER_OF_BYTES
Text #1
ID : 4
Format : ASS
Codec ID : S_TEXT/ASS
Codec ID/Info : Advanced Sub Station Alpha
Compression mode : Lossless
Title : Sub. Ita. Forced
Language : Italian
Default : Yes
Forced : Yes
DURATION : 02:22:16.110000000
NUMBER_OF_FRAMES : 13
NUMBER_OF_BYTES : 340
_STATISTICS_WRITING_APP : mkvmerge v7.8.0 ('River Man') 32bit built on Mar 27 2015 16:18:02
_STATISTICS_WRITING_DATE_UTC : 2015-04-14 11:57:47
_STATISTICS_TAGS : BPS DURATION NUMBER_OF_FRAMES NUMBER_OF_BYTES
Text #2
ID : 5
Format : ASS
Codec ID : S_TEXT/ASS
Codec ID/Info : Advanced Sub Station Alpha
Compression mode : Lossless
Title : Sub. Eng.
Language : English
Default : No
Forced : No
DURATION : 02:19:12.886000000
NUMBER_OF_FRAMES : 1238
NUMBER_OF_BYTES : 30428
_STATISTICS_WRITING_APP : mkvmerge v7.8.0 ('River Man') 32bit built on Mar 27 2015 16:18:02
_STATISTICS_WRITING_DATE_UTC : 2015-04-14 11:57:47
_STATISTICS_TAGS : BPS DURATION NUMBER_OF_FRAMES NUMBER_OF_BYTES
Text #3
ID : 6
Format : ASS
Codec ID : S_TEXT/ASS
Codec ID/Info : Advanced Sub Station Alpha
Compression mode : Lossless
Title : Sub. Ita.
Language : Italian
Default : No
Forced : No
DURATION : 02:22:16.110000000
NUMBER_OF_FRAMES : 1251
NUMBER_OF_BYTES : 32645
_STATISTICS_WRITING_APP : mkvmerge v7.8.0 ('River Man') 32bit built on Mar 27 2015 16:18:02
_STATISTICS_WRITING_DATE_UTC : 2015-04-14 11:57:47
_STATISTICS_TAGS : BPS DURATION NUMBER_OF_FRAMES NUMBER_OF_BYTES
Text #4
ID : 7
Format : ASS
Codec ID : S_TEXT/ASS
Codec ID/Info : Advanced Sub Station Alpha
Compression mode : Lossless
Title : Sub. Eng. Not Hearing
Language : English
Default : No
Forced : No
DURATION : 02:21:06.758000000
NUMBER_OF_FRAMES : 1646
NUMBER_OF_BYTES : 38257
_STATISTICS_WRITING_APP : mkvmerge v7.8.0 ('River Man') 32bit built on Mar 27 2015 16:18:02
_STATISTICS_WRITING_DATE_UTC : 2015-04-14 11:57:47
_STATISTICS_TAGS : BPS DURATION NUMBER_OF_FRAMES NUMBER_OF_BYTES
Menu
00:00:00.000 : :00:00:00.000
00:03:55.402 : :00:03:55.402
00:06:51.995 : :00:06:51.995
00:11:47.707 : :00:11:47.707
00:14:29.452 : :00:14:29.452
00:18:37.658 : :00:18:37.658
00:22:15.834 : :00:22:15.834
00:26:51.151 : :00:26:51.151
00:30:31.288 : :00:30:31.288
00:36:41.366 : :00:36:41.366
00:40:48.321 : :00:40:48.321
00:44:49.937 : :00:44:49.937
00:48:47.800 : :00:48:47.800
00:51:16.448 : :00:51:16.448
00:54:22.217 : :00:54:22.217
00:57:32.658 : :00:57:32.658
01:00:31.169 : :01:00:31.169
01:04:41.544 : :01:04:41.544
01:06:49.047 : :01:06:49.047
01:11:01.883 : :01:11:01.883
01:16:53.692 : :01:16:53.692
01:21:18.040 : :01:21:18.040
01:24:30.357 : :01:24:30.357
01:28:08.533 : :01:28:08.533
01:30:54.157 : :01:30:54.157
01:34:14.566 : :01:34:14.566
01:37:20.543 : :01:37:20.543
01:39:20.204 : :01:39:20.204
01:42:40.321 : :01:42:40.321
01:46:50.070 : :01:46:50.070
01:49:02.661 : :01:49:02.661
01:52:18.315 : :01:52:18.315
01:57:29.876 : :01:57:29.876
02:00:23.842 : :02:00:23.842
02:05:41.325 : :02:05:41.325
02:07:31.269 : :02:07:31.269
02:13:38.469 : :02:13:38.469
02:16:21.882 : :02:16:21.882
02:19:39.997 : :02:19:39.997
02:23:19.800 : :02:23:19.800

Server:
Limetorrents

Exodus Gods and Kings - Exodus Dei E Re (2014).BDrip.H264 - Italian English.Ac3.5.1.Sub.Ita.Eng.MIRCrewNO FOUND ONLY ORIGINAL RELEASEExodus Dei E Re - Exodus Gods and
Kings (2014) Titolo originale Exodus: Gods and KingsLingua originale inglesePaese di produzione USA, Regno Unito, SpagnaAnno 2014Durata 150 minRapporto 2.35:1Genere
biblico, fantasticoRegia Ridley ScottSoggetto Libro dell'EsodoSceneggiatura Adam Cooper, Steven
Zaillian, Bill Collage, Jeffrey CaineProduttore Peter Chernin, Ridley Scott, Jenno Topping, Michael Schaffer,
Mark HuffamCasa di produzione Chernin EntertainmentScott Free ProductionsBabiekaVolcano
FilmsDistribuzione (Italia) 20th Century FoxFotografia Dariusz WolskiMontaggio Billy RichMusiche Alberto IglesiasScenografia Arthur MaxCostumi Janty Yates Christian Bale: Mosè Joel Edgerton: Ramses Aaron Paul: Giosuè
John Turturro: Seti Ben Kingsley: Nun Sigourney Weaver: Tuya Tara Fitzgerald: Miriam
María Valverde: Séfora Hiam Abbass: Bithia Golshifteh Farahani: Nefertari Ben
Mendelsohn: Hagep Kevork Malikyan: Jethro Isaac Andrews: Malak Dar Salim: Khyan
Andrew Tarbet: Aronne Ghassan Massoud: Gran visir . Gli eventi narrati traggono ispirazione dal libro dell'Esodo e raccontano la partenza del
popolo di Israele dall'Egitto, dove era tenuto in schiavitù. Mosé, "colui che è stato salvato dalle acque", nacque
dagli israeliti Amram e Iochebed. Scampato alla persecuzione voluta dal Faraone, venne salvato dalla sorella nubile di
quest'ultimo ed educato nella corte egizia, dove si guadagnò la fiducia del faraone Seti, fino a diventare generale
dell'esercito...........Epic adventure Exodus: Gods
and Kings is the story of one man's daring courage to take on the might of an empire. Using state of the art visual
effects and 3D immersion, Scott brings new life to the story of the defiant leader Moses as he rises up against the
Egyptian Pharaoh Ramses, setting 600,000 slaves on a monumental journey of escape from Egypt and its terrifying cycle of
deadly plagues.......GeneralUnique ID :
339186320930567143675764650696722993953 (0xFF2CE8C2AF9A5CA094094ED20279D321)Complete name
: Exodus Gods and Kings.H264.ita.eng.sub.ita.eng.MIRCrew.mkvFormat :
MatroskaFormat version : Version 2File size : 2.02
GiBDuration : 2h 30mnOverall bit rate : 1 921
KbpsEncoded date : UTC 2015-04-14 11:57:47Writing application
: Lavf54.63.100Writing library : Lavf54.63.100VideoID
: 1Format : AVCFormat/Info
: Advanced Video CodecFormat profile :
/* */Format settings, CABAC
: YesFormat settings, ReFrames : 2 framesCodec ID :
V_MPEG4/ISO/AVCDuration : 2h 30mnBit rate :
1 150 KbpsWidth : 720 pixelsHeight :
300 pixelsDisplay aspect ratio : 2.40:1Frame rate mode :
VariableFrame rate : 23.976 fpsColor space :
YUVChroma subsampling : 4:2:0Bit depth : 8 bitsScan type : ProgressiveBits/(Pixel*Frame) : 0.222Stream size : 1.17 GiB (58%)Writing library : x264 core
130 r2273Encoding settings : cabac=1 / ref=2 / deblock=1:0:0 / analyse=0x1:0x131 / me=hex /
subme=7 / psy=1 / psy_rd=1.00:0.00 / mixed_ref=0 / me_range=16 / chroma_me=1 / trellis=1 / 8x8dct=0 / cqm=0 /
deadzone=21,11 / fast_pskip=1 / chroma_qp_offset=-2 / threads=12 / lookahead_threads=2 / sliced_threads=0 / nr=0 /
decimate=1 / interlaced=0 / bluray_compat=0 / constrained_intra=0 / bframes=3 / b_pyramid=0 / b_adapt=1 / b_bias=0 /
direct=3 / weightb=1 / open_gop=0 / weightp=2 / keyint=230 / keyint_min=23 / scenecut=40 / intra_refresh=0 /
rc_lookahead=40 / rc=abr / mbtree=1 / bitrate=1150 / ratetol=1.0 / qcomp=0.60 / qpmin=10 / qpmax=69 / qpstep=4 /
vbv_maxrate=24000 / vbv_bufsize=24000 / nal_hrd=none / ip_ratio=1.40 / aq=1:1.00Default
: YesForced : NoDURATION :
02:30:12.587000000NUMBER_OF_FRAMES : 216086NUMBER_OF_BYTES
: 9912805661_STATISTICS_WRITING_APP : mkvmerge v7.8.0 ('River Man') 32bit built on Mar 27 2015
16:18:02_STATISTICS_WRITING_DATE_UTC : 2015-04-14 11:57:47_STATISTICS_TAGS
: BPS DURATION NUMBER_OF_FRAMES NUMBER_OF_BYTESAudio #1ID :
2Format : AC-3Format/Info : Audio Coding 3Mode extension : CM (complete main)Codec ID : A_AC3Duration : 2h 30mnBit rate mode : ConstantBit
rate : 384 KbpsChannel(s) : 6 channelsChannel
positions : Front: L C R, Side: L R, LFESampling rate : 48.0
KHzBit depth : 16 bitsCompression mode : LossyDelay relative to video : 1mn 5sStream size : 413 MiB (20%)Title : Ita. AC3 640 KbpsLanguage :
ItalianDefault : NoForced : NoDURATION : 02:30:12.608000000NUMBER_OF_FRAMES :
281644NUMBER_OF_BYTES : 721008640_STATISTICS_WRITING_APP :
mkvmerge v7.8.0 ('River Man') 32bit built on Mar 27 2015 16:18:02_STATISTICS_WRITING_DATE_UTC :
2015-04-14 11:57:47_STATISTICS_TAGS : BPS DURATION NUMBER_OF_FRAMES NUMBER_OF_BYTESAudio #2ID : 3Format :
AC-3Format/Info : Audio Coding 3Mode extension : CM
(complete main)Codec ID : A_AC3Duration : 2h
30mnBit rate mode : ConstantBit rate : 384
KbpsChannel(s) : 6 channelsChannel positions : Front: L
C R, Side: L R, LFESampling rate : 48.0 KHzBit depth
: 16 bitsCompression mode : LossyDelay relative to video : 1mn
5sStream size : 413 MiB (20%)Title : Eng.
DTS 1510 KbpsLanguage : EnglishDefault :
NoForced : NoDURATION :
02:30:12.598000000NUMBER_OF_FRAMES : 844931NUMBER_OF_BYTES
: 1700001288_STATISTICS_WRITING_APP : mkvmerge v7.8.0 ('River Man') 32bit built on Mar 27 2015
16:18:02_STATISTICS_WRITING_DATE_UTC : 2015-04-14 11:57:47_STATISTICS_TAGS
: BPS DURATION NUMBER_OF_FRAMES NUMBER_OF_BYTESText #1ID :
4Format : ASSCodec ID : S_TEXT/ASSCodec ID/Info : Advanced Sub Station AlphaCompression mode :
LosslessTitle : Sub. Ita. ForcedLanguage
: ItalianDefault : YesForced : YesDURATION : 02:22:16.110000000NUMBER_OF_FRAMES : 13NUMBER_OF_BYTES : 340_STATISTICS_WRITING_APP : mkvmerge v7.8.0 ('River
Man') 32bit built on Mar 27 2015 16:18:02_STATISTICS_WRITING_DATE_UTC : 2015-04-14 11:57:47_STATISTICS_TAGS : BPS DURATION NUMBER_OF_FRAMES NUMBER_OF_BYTESText #2ID
: 5Format : ASSCodec ID
: S_TEXT/ASSCodec ID/Info : Advanced Sub Station AlphaCompression
mode : LosslessTitle : Sub. Eng.Language
: EnglishDefault : NoForced
: NoDURATION : 02:19:12.886000000NUMBER_OF_FRAMES
: 1238NUMBER_OF_BYTES : 30428_STATISTICS_WRITING_APP :
mkvmerge v7.8.0 ('River Man') 32bit built on Mar 27 2015 16:18:02_STATISTICS_WRITING_DATE_UTC :
2015-04-14 11:57:47_STATISTICS_TAGS : BPS DURATION NUMBER_OF_FRAMES NUMBER_OF_BYTESText #3ID : 6Format : ASSCodec ID : S_TEXT/ASSCodec ID/Info : Advanced Sub
Station AlphaCompression mode : LosslessTitle :
Sub. Ita.Language : ItalianDefault : NoForced : NoDURATION : 02:22:16.110000000NUMBER_OF_FRAMES : 1251NUMBER_OF_BYTES : 32645_STATISTICS_WRITING_APP : mkvmerge v7.8.0 ('River Man') 32bit built on Mar 27 2015 16:18:02_STATISTICS_WRITING_DATE_UTC : 2015-04-14 11:57:47_STATISTICS_TAGS : BPS
DURATION NUMBER_OF_FRAMES NUMBER_OF_BYTESText #4ID : 7Format : ASSCodec ID : S_TEXT/ASSCodec
ID/Info : Advanced Sub Station AlphaCompression mode :
LosslessTitle : Sub. Eng. Not HearingLanguage
: EnglishDefault : NoForced : NoDURATION : 02:21:06.758000000NUMBER_OF_FRAMES : 1646NUMBER_OF_BYTES : 38257_STATISTICS_WRITING_APP : mkvmerge v7.8.0
('River Man') 32bit built on Mar 27 2015 16:18:02_STATISTICS_WRITING_DATE_UTC : 2015-04-14 11:57:47_STATISTICS_TAGS : BPS DURATION NUMBER_OF_FRAMES NUMBER_OF_BYTESMenu00:00:00.000 : :00:00:00.00000:03:55.402 :
:00:03:55.40200:06:51.995 : :00:06:51.99500:11:47.707
: :00:11:47.70700:14:29.452 : :00:14:29.45200:18:37.658
: :00:18:37.65800:22:15.834 : :00:22:15.83400:26:51.151
: :00:26:51.15100:30:31.288 : :00:30:31.28800:36:41.366
: :00:36:41.36600:40:48.321 : :00:40:48.32100:44:49.937
: :00:44:49.93700:48:47.800 : :00:48:47.80000:51:16.448
: :00:51:16.44800:54:22.217 : :00:54:22.21700:57:32.658
: :00:57:32.65801:00:31.169 : :01:00:31.16901:04:41.544
: :01:04:41.54401:06:49.047 : :01:06:49.04701:11:01.883
: :01:11:01.88301:16:53.692 : :01:16:53.69201:21:18.040
: :01:21:18.04001:24:30.357 : :01:24:30.35701:28:08.533 : :01:28:08.53301:30:54.157 :
:01:30:54.15701:34:14.566 : :01:34:14.56601:37:20.543
: :01:37:20.54301:39:20.204 : :01:39:20.20401:42:40.321
: :01:42:40.32101:46:50.070 : :01:46:50.07001:49:02.661
: :01:49:02.66101:52:18.315 : :01:52:18.31501:57:29.876
: :01:57:29.87602:00:23.842 : :02:00:23.84202:05:41.325
: :02:05:41.32502:07:31.269 : :02:07:31.26902:13:38.469
: :02:13:38.46902:16:21.882 : :02:16:21.88202:19:39.997
: :02:19:39.99702:23:19.800 : :02:23:19.800