picktorrent picktorrent engine

Impressive Torrents Picker

ADD     picktorrent  to search engine list

Security note: Downloading torrents is getting riskier everyday. We strongly recommend our users to use SpyOFF VPN to make themselves anonymous while downloading torrents. By using SpyOFF VPN, your ISPs and Government agencies will not be able to spy on you neither would they be able to track your online activities.

Try it for free

Download torrent:
"MI-3(2006)1920*1080p BDRip In[Hindi-Eng]6CH.AC3 By !!!dip"

Size: 4.2 GB Category: Video Date: 2012-01-06 00:00:00
Seeders: 0 Leechers: 2
Download This Torrent Magnet Link
We picked this "MI-3(2006)1920*1080p BDRip In[Hindi-Eng]6CH.AC3 By !!!dip" on: Limetorrents, Realtorrentz, Torrentdownloadz, Thepiratebay, Btscene, Kickasstorrents, Torrentroom, Filesh, Torrentfunk, Seedpeer, Monova, Sumotorrent, Torrentsland, Bitsnoop

Description

																					

Server:
Realtorrentz

=!DK GROUP HD BLURAY RELEAESEES!=
===================================================================================
Mission Impossible-3(2006)1920*1080p BDRip In6CH.AC3 By !!!dip
===================================================================================
Storyline:
Super-spy Ethan Hunt has retired from active duty to trains new IMF agents. But he is called back into action to confront the toughest villain he's ever faced - Owen Davian, an international weapons and information provider with no remorse and no conscience. Hunt assembles his team: his old friend Luther Strickell, transportation expert Declan, and background operative Zhen. They are to rescue one of his very own trainees, Lindsey who was kidnapped while on a surveillance detail of Davian. It soon becomes evident that Davian is well-protected, well-connected, and downright malicious. This forces Hunt to extend his journey back into the field in order to rescue his wife, Julia, and uncover IMF double agents in the process. Written by Anonymous
Cast:
Tom Cruise...............Ethan Hunt
Philip Seymour Hoffman...Owen Davian
Ving Rhames..............Luther Stickell
Billy Crudup.............John Musgrave
Michelle Monaghan........Julia
Jonathan Rhys Meyers.....Declan Gormley
Keri Russell.............Lindsey Farris
Maggie Q.................Zhen Lei
Simon Pegg...............Benji Dunn
Eddie Marsan.............Brownway
Laurence Fishburne.......Theodore Brassel
Bahar Soomekh............Davian's Translator
Jeff Chase...............Davian's Bodyguard
Michael Berry Jr.........Julia's Kidnapper
Carla Gallo..............Beth
Directors :J.J. Abrams
Writers :Alex Kurtzman, Roberto Orci
Stars: Tom Cruise, Michelle Monaghan and Ving Rhames
Genre: Action | Adventure | Thriller
Language: English-Hindi
Format : Color, Dubbed,Widescreen
Release Date :16 June 2006 (India)
Run Time : 02H:00M:16S
Encoder: Deep Shikha
Video Specifications:
Video
ID : 1
Format : AVC
Format/Info : Advanced Video Codec
Format profile : High@L4.0
Format settings, CABAC : Yes
Format settings, ReFrames : 3 frames
Muxing mode : Header stripping
Codec ID : V_MPEG4/ISO/AVC
Duration : 2h 0mn
Bit rate mode : Variable
Bit rate : 3 860 Kbps
Maximum bit rate : 25.0 Mbps
Width : 1 920 pixels
Height : 1 080 pixels
Display aspect ratio : 16:9
Frame rate : 25.000 fps
Original frame rate : 23.976 fps
Color space : YUV
Chroma subsampling : 4:2:0
Bit depth : 8 bits
Scan type : Progressive
Bits/(Pixel*Frame) : 0.074
Stream size : 3.33 GiB (88%)
Title : !!!dip
Team : DK Group HD Bluray Releases
Audio Specifications:
Audio
ID : 2
Format : AC-3
Format/Info : Audio Coding 3
Mode extension : CM (complete main)
Muxing mode : Header stripping
Codec ID : A_AC3
Duration : 2h 0mn
Bit rate mode : Constant
Bit rate : 448 Kbps
Channel(s) : 6 channels
Channel positions : Front: L C R, Side: L R, LFE
Sampling rate : 48.0 KHz
Bit depth : 16 bits
Compression mode : Lossy
Stream size : 385 MiB (10%)
Title : !!!dip
Language : English
Audio
ID : 3
Format : AC-3
Format/Info : Audio Coding 3
Mode extension : CM (complete main)
Muxing mode : Header stripping
Codec ID : A_AC3
Duration : 2h 0mn
Bit rate mode : Constant
Bit rate : 448 Kbps
Channel(s) : 6 channels
Channel positions : Front: L C R, Side: L R, LFE
Sampling rate : 48.0 KHz
Bit depth : 16 bits
Compression mode : Lossy
Stream size : 385 MiB (100%)
Title : !!!dip
Language : Hindi
Text
ID : 4
Format : UTF-8
Codec ID : S_TEXT/UTF8
Codec ID/Info : UTF-8 Plain Text
Title : !!!dip
Language : English
SAMPLE IMAGE:
download MI-3(2006)1920*1080p BDRip In[Hindi-Eng]6CH.AC3 By !!!dip
download MI-3(2006)1920*1080p BDRip In[Hindi-Eng]6CH.AC3 By !!!dip
download MI-3(2006)1920*1080p BDRip In[Hindi-Eng]6CH.AC3 By !!!dip
download MI-3(2006)1920*1080p BDRip In[Hindi-Eng]6CH.AC3 By !!!dip
download MI-3(2006)1920*1080p BDRip In[Hindi-Eng]6CH.AC3 By !!!dip
download MI-3(2006)1920*1080p BDRip In[Hindi-Eng]6CH.AC3 By !!!dip
VIDEO SAMPLE IS AVAILABLE

Server:
Torrentdownloadz

=!DK GROUP HD BLURAY RELEAESEES!= =================================================================================== Mission Impossible-3(2006)1920*1080p BDRip In6CH.AC3 By !!!dip =================================================================================== Storyline: Super-spy Ethan Hunt has retired from active duty to trains new IMF agents. But he is called back into action to confront the toughest villain he's ever faced - Owen Davian, an international weapons and information provider with no remorse and no conscience. Hunt assembles his team: his old friend Luther Strickell, transportation expert Declan, and background operative Zhen. They are to rescue one of his very own trainees, Lindsey who was kidnapped while on a surveillance detail of Davian. It soon becomes evident that Davian is well-protected, well-connected, and downright malicious. This forces Hunt to extend his journey back into the field in order to rescue his wife, Julia, and uncover IMF double agents in the process. Written by Anonymous Cast: Tom Cruise...............Ethan Hunt Philip Seymour Hoffman...Owen Davian Ving Rhames..............Luther Stickell Billy Crudup.............John Musgrave Michelle Monaghan........Julia Jonathan Rhys Meyers.....Declan Gormley Keri Russell.............Lindsey Farris Maggie Q.................Zhen Lei Simon Pegg...............Benji Dunn Eddie Marsan.............Brownway Laurence Fishburne.......Theodore Brassel Bahar Soomekh............Davian's Translator Jeff Chase...............Davian's Bodyguard Michael Berry Jr.........Julia's Kidnapper Carla Gallo..............Beth Directors :J.J. Abrams Writers :Alex Kurtzman, Roberto Orci Stars: Tom Cruise, Michelle Monaghan and Ving Rhames Genre: Action | Adventure | Thriller Language: English-Hindi Format : Color, Dubbed,Widescreen Release Date :16 June 2006 (India) Run Time : 02H:00M:16S Encoder: Deep Shikha Video Specifications: Video ID : 1 Format : AVC Format/Info : Advanced Video Codec Format profile : High@L4.0 Format settings, CABAC : Yes Format settings, ReFrames : 3 frames Muxing mode : Header stripping Codec ID : V_MPEG4/ISO/AVC Duration : 2h 0mn Bit rate mode : Variable Bit rate : 3 860 Kbps Maximum bit rate : 25.0 Mbps Width : 1 920 pixels Height : 1 080 pixels Display aspect ratio : 16:9 Frame rate : 25.000 fps Original frame rate : 23.976 fps Color space : YUV Chroma subsampling : 4:2:0 Bit depth : 8 bits Scan type : Progressive Bits/(Pixel*Frame) : 0.074 Stream size : 3.33 GiB (88%) Title : !!!dip Team : DK Group HD Bluray Releases Audio Specifications: Audio ID : 2 Format : AC-3 Format/Info : Audio Coding 3 Mode extension : CM (complete main) Muxing mode : Header stripping Codec ID : A_AC3 Duration : 2h 0mn Bit rate mode : Constant Bit rate : 448 Kbps Channel(s) : 6 channels Channel positions : Front: L C R, Side: L R, LFE Sampling rate : 48.0 KHz Bit depth : 16 bits Compression mode : Lossy Stream size : 385 MiB (10%) Title : !!!dip Language : English Audio ID : 3 Format : AC-3 Format/Info : Audio Coding 3 Mode extension : CM (complete main) Muxing mode : Header stripping Codec ID : A_AC3 Duration : 2h 0mn Bit rate mode : Constant Bit rate : 448 Kbps Channel(s) : 6 channels Channel positions : Front: L C R, Side: L R, LFE Sampling rate : 48.0 KHz Bit depth : 16 bits Compression mode : Lossy Stream size : 385 MiB (100%) Title : !!!dip Language : Hindi Text ID : 4 Format : UTF-8 Codec ID : S_TEXT/UTF8 Codec ID/Info : UTF-8 Plain Text Title : !!!dip Language : English SAMPLE IMAGE: download MI-3(2006)1920*1080p BDRip In[Hindi-Eng]6CH.AC3 By !!!dip download MI-3(2006)1920*1080p BDRip In[Hindi-Eng]6CH.AC3 By !!!dip download MI-3(2006)1920*1080p BDRip In[Hindi-Eng]6CH.AC3 By !!!dip download MI-3(2006)1920*1080p BDRip In[Hindi-Eng]6CH.AC3 By !!!dip download MI-3(2006)1920*1080p BDRip In[Hindi-Eng]6CH.AC3 By !!!dip download MI-3(2006)1920*1080p BDRip In[Hindi-Eng]6CH.AC3 By !!!dip VIDEO SAMPLE IS AVAILABLE

Server:
Kickasstorrents

Movie: Mission: Impossible III
IMDB link: 0317919
Detected quality: HDRiP
IMDB rating: 6.8 (110,109 votes)
RottenTomatoes: 70% 69%
Genres: action, adventure, thriller CLICK HERE THIS AND SEE ALL MY INCODES MOVIES IN BLURAYMission Impossible-3(2006)1080p BDRip In6CH.AC3 By !!!dipSuper-spy Ethan Hunt has retired from active duty to trains new IMF agents. But he is called back into action to confront the toughest villain he\'s ever faced - Owen Davian, an international weapons and information provider with no remorse and no conscience. Hunt assembles his team: his old friend Luther Strickell, transportation expert Declan, and background operative Zhen. They are to rescue one of his very own trainees, Lindsey who was kidnapped while on a surveillance detail of Davian. It soon becomes evident that Davian is well-protected, well-connected, and downright malicious. This forces Hunt to extend his journey back into the field in order to rescue his wife, Julia, and uncover IMF double agents in the process. Written by Anonymous Tom Cruise...............Ethan HuntPhilip Seymour Hoffman...Owen DavianVing Rhames..............Luther StickellBilly Crudup.............John MusgraveMichelle Monaghan........JuliaJonathan Rhys Meyers.....Declan GormleyKeri Russell.............Lindsey FarrisMaggie Q.................Zhen LeiSimon Pegg...............Benji DunnEddie Marsan.............BrownwayLaurence Fishburne.......Theodore BrasselBahar Soomekh............Davian\'s TranslatorJeff Chase...............Davian\'s BodyguardMichael Berry Jr.........Julia\'s KidnapperCarla Gallo..............BethDirectors :J.J. AbramsWriters :Alex Kurtzman, Roberto OrciStars: Tom Cruise, Michelle Monaghan and Ving RhamesGenre: Action | Adventure | ThrillerLanguage: English-HindiFormat : Color, Dubbed,WidescreenRelease Date :16 June 2006 (India)Run Time : 02H:00M:16SEncoder: Deep ShikhaVideoID : 1Format : AVCFormat/Info : Advanced Video CodecFormat profile : High@L4.0Format settings, CABAC : YesFormat settings, ReFrames : 3 framesMuxing mode : Header strippingCodec ID : V_MPEG4/ISO/AVCDuration : 2h 0mnBit rate mode : VariableBit rate : 3 860 KbpsMaximum bit rate : 25.0 MbpsWidth : 1 920 pixelsHeight : 1 080 pixelsDisplay aspect ratio : 16:9Frame rate : 25.000 fpsOriginal frame rate : 23.976 fpsColor space : YUVChroma subsampling : 4:2:0Bit depth : 8 bitsScan type : ProgressiveBits/(Pixel*Frame) : 0.074Stream size : 3.33 GiB (88%)Title : !!!dipTeam : DK Group HD Bluray ReleasesAudioID : 2Format : AC-3Format/Info : Audio Coding 3Mode extension : CM (complete main)Muxing mode : Header strippingCodec ID : A_AC3Duration : 2h 0mnBit rate mode : ConstantBit rate : 448 KbpsChannel(s) : 6 channelsChannel positions : Front: L C R, Side: L R, LFESampling rate : 48.0 KHzBit depth : 16 bitsCompression mode : LossyStream size : 385 MiB (10%)Title : !!!dipLanguage : EnglishAudioID : 3Format : AC-3Format/Info : Audio Coding 3Mode extension : CM (complete main)Muxing mode : Header strippingCodec ID : A_AC3Duration : 2h 0mnBit rate mode : ConstantBit rate : 448 KbpsChannel(s) : 6 channelsChannel positions : Front: L C R, Side: L R, LFESampling rate : 48.0 KHzBit depth : 16 bitsCompression mode : LossyStream size : 385 MiB (100%)Title : !!!dipLanguage : HindiTextID : 4Format : UTF-8Codec ID : S_TEXT/UTF8Codec ID/Info : UTF-8 Plain TextTitle : !!!dipLanguage : Englishhttp://www.imdb.com/title/tt0317919/http://www.facebook.com/groups/275932405751640/http://www.mediafire.com/?ne4lsjba48w6x8m

Server:
Filesh

CLICK HERE THIS AND SEE ALL MY INCODES MOVIES IN BLURAY
Mission Impossible-3(2006)1080p BDRip In6CH.AC3 By !!!dip
Super-spy Ethan Hunt has retired from active duty to trains new IMF agents. But he is called back into action to confront the toughest villain he's ever faced - Owen Davian, an international weapons and information provider with no remorse and no conscience. Hunt assembles his team: his old friend Luther Strickell, transportation expert Declan, and background operative Zhen. They are to rescue one of his very own trainees, Lindsey who was kidnapped while on a surveillance detail of Davian. It soon becomes evident that Davian is well-protected, well-connected, and downright malicious. This forces Hunt to extend his journey back into the field in order to rescue his wife, Julia, and uncover IMF double agents in the process. Written by Anonymous
Tom Cruise...............Ethan Hunt
Philip Seymour Hoffman...Owen Davian
Ving Rhames..............Luther Stickell
Billy Crudup.............John Musgrave
Michelle Monaghan........Julia
Jonathan Rhys Meyers.....Declan Gormley
Keri Russell.............Lindsey Farris
Maggie Q.................Zhen Lei
Simon Pegg...............Benji Dunn
Eddie Marsan.............Brownway
Laurence Fishburne.......Theodore Brassel
Bahar Soomekh............Davian's Translator
Jeff Chase...............Davian's Bodyguard
Michael Berry Jr.........Julia's Kidnapper
Carla Gallo..............Beth
Directors :J.J. Abrams
Writers :Alex Kurtzman, Roberto Orci
Stars: Tom Cruise, Michelle Monaghan and Ving Rhames
Genre: Action | Adventure | Thriller
Language: English-Hindi
Format : Color, Dubbed,Widescreen
Release Date :16 June 2006 (India)
Run Time : 02H:00M:16S
Encoder: Deep Shikha
Video
ID : 1
Format : AVC
Format/Info : Advanced Video Codec
Format profile : High@L4.0
Format settings, CABAC : Yes
Format settings, ReFrames : 3 frames
Muxing mode : Header stripping
Codec ID : V_MPEG4/ISO/AVC
Duration : 2h 0mn
Bit rate mode : Variable
Bit rate : 3 860 Kbps
Maximum bit rate : 25.0 Mbps
Width : 1 920 pixels
Height : 1 080 pixels
Display aspect ratio : 16:9
Frame rate : 25.000 fps
Original frame rate : 23.976 fps
Color space : YUV
Chroma subsampling : 4:2:0
Bit depth : 8 bits
Scan type : Progressive
Bits/(Pixel*Frame) : 0.074
Stream size : 3.33 GiB (88%)
Title : !!!dip
Team : DK Group HD Bluray Releases
Audio
ID : 2
Format : AC-3
Format/Info : Audio Coding 3
Mode extension : CM (complete main)
Muxing mode : Header stripping
Codec ID : A_AC3
Duration : 2h 0mn
Bit rate mode : Constant
Bit rate : 448 Kbps
Channel(s) : 6 channels
Channel positions : Front: L C R, Side: L R, LFE
Sampling rate : 48.0 KHz
Bit depth : 16 bits
Compression mode : Lossy
Stream size : 385 MiB (10%)
Title : !!!dip
Language : English
Audio
ID : 3
Format : AC-3
Format/Info : Audio Coding 3
Mode extension : CM (complete main)
Muxing mode : Header stripping
Codec ID : A_AC3
Duration : 2h 0mn
Bit rate mode : Constant
Bit rate : 448 Kbps
Channel(s) : 6 channels
Channel positions : Front: L C R, Side: L R, LFE
Sampling rate : 48.0 KHz
Bit depth : 16 bits
Compression mode : Lossy
Stream size : 385 MiB (100%)
Title : !!!dip
Language : Hindi
Text
ID : 4
Format : UTF-8
Codec ID : S_TEXT/UTF8
Codec ID/Info : UTF-8 Plain Text
Title : !!!dip
Language : English
http://www.imdb.com/title/tt0317919/
http://www.facebook.com/groups/275932405751640/
http://www.mediafire.com/?ne4lsjba48w6x8m