picktorrent picktorrent engine

Impressive Torrents Picker

ADD     picktorrent  to search engine list

Security note: Downloading torrents is getting riskier everyday. We strongly recommend our users to use SpyOFF VPN to make themselves anonymous while downloading torrents. By using SpyOFF VPN, your ISPs and Government agencies will not be able to spy on you neither would they be able to track your online activities.

Try it for free

Download torrent:
"Mission Impossible Rogue Nation 2015 720p HQTS - x264 7St@r™"

Size: 1.1 GB Category: Video > Movies Date: 2015-08-11 19:16:12
Seeders: 9 Leechers: 0
Download This Torrent Magnet Link
We picked this "Mission Impossible Rogue Nation 2015 720p HQTS - x264 7St@r™" on: Kickasstorrents, A2ZTorrent, Btscene, Limetorrents, Seedpeer, Torrentfunk, Crystaltorrents, Yourbittorrent

Description

																					

Server:
Kickasstorrents

Mission Impossible Rogue Nation 2015 720p HQTS - x264...7St@râ„¢
General
Complete name : Mission Impossible Rogue Nation 2015
Format : Matroska
Format version : Version 4 / Version 2
File size : 1.09 GiB
Duration : 2h 4mn
Overall bit rate : 1 258 Kbps
Movie name : 7St@r {fb.com/7starHD}
Video
ID : 2
Format : AVC
Format/Info : Advanced Video Codec
Format profile : High@L4.1
Format settings, CABAC : Yes
Format settings, ReFrames : 4 frames
Codec ID : V_MPEG4/ISO/AVC
Duration : 2h 4mn
Nominal bit rate : 999 Kbps
Width : 1 280 pixels
Height : 532 pixels
Display aspect ratio : 2.40:1
Frame rate mode : Constant
Frame rate : 23.976 fps
Color space : YUV
Chroma subsampling : 4:2:0
Bit depth : 8 bits
Scan type : Progressive
Bits/(Pixel*Frame) : 0.061
Title : 7St@r {fb.com/7starHD}
Writing library : x264 core 142 r2479 dd79a61
Language : English
Default : Yes
Forced : No
Audio #1
ID : 1
Format : MPEG Audio
Format version : Version 1
Format profile : Layer 3
Mode : Joint stereo
Mode extension : MS Stereo
Codec ID : A_MPEG/L3
Codec ID/Hint : MP3
Duration : 2h 4mn
Bit rate mode : Constant
Bit rate : 128 Kbps
Channel(s) : 2 channels
Sampling rate : 44.1 KHz
Compression mode : Lossy
Delay relative to video : -83ms
Stream size : 114 MiB (10%)
Title : 7St@r {fb.com/7starHD}
Writing library : LAME3.98.2
Language : hai
Default : No
Forced : No
Audio #2
ID : 3
Format : AAC
Format/Info : Advanced Audio Codec
Format profile : LC
Codec ID : A_AAC
Duration : 2h 4mn
Channel(s) : 2 channels
Channel positions : Front: L R
Sampling rate : 48.0 KHz
Compression mode : Lossy
Delay relative to video : -21ms
Title : 7St@r {fb.com/7starHD}
Language : English
Default : Yes
Forced : No

Server:
Limetorrents

Mission
Impossible Rogue Nation 2015 720p HQTS - x264...7St@râ„¢ General Complete name : Mission Impossible Rogue Nation 2015 Format : Matroska Format version : Version 4 / Version 2 File size : 1.09 GiB Duration : 2h 4mn Overall bit rate
: 1 258 Kbps Movie name : 7St@r {fb.com/7starHD} Video ID : 2 Format : AVC
Format/Info : Advanced Video Codec Format profile :
/* */ Format settings, CABAC : Yes Format
settings, ReFrames : 4 frames Codec ID : V_MPEG4/ISO/AVC Duration : 2h 4mn Nominal bit rate : 999
Kbps Width : 1 280 pixels Height : 532 pixels Display aspect ratio : 2.40:1 Frame rate mode
: Constant Frame rate : 23.976 fps Color space : YUV Chroma subsampling : 4:2:0 Bit depth :
8 bits Scan type : Progressive Bits/(Pixel*Frame) : 0.061 Title : 7St@r {fb.com/7starHD}
Writing library : x264 core 142 r2479 dd79a61 Language : English Default : Yes Forced : No
Audio #1 ID : 1 Format : MPEG Audio Format version : Version 1
Format profile : Layer 3 Mode : Joint stereo Mode extension : MS Stereo Codec ID : A_MPEG/L3
Codec ID/Hint : MP3 Duration : 2h 4mn Bit rate mode : Constant Bit rate : 128 Kbps
Channel(s) : 2 channels Sampling rate : 44.1 KHz Compression mode : Lossy Delay relative to video :
-83ms Stream size : 114 MiB (10%) Title : 7St@r {fb.com/7starHD} Writing library : LAME3.98.2
Language : hai Default : No Forced : No Audio #2 ID : 3 Format :
AAC Format/Info : Advanced Audio Codec Format profile : LC Codec ID : A_AAC Duration : 2h
4mn Channel(s) : 2 channels Channel positions : Front: L R Sampling rate : 48.0 KHz
Compression mode : Lossy Delay relative to video : -21ms Title : 7St@r {fb.com/7starHD} Language :
English Default : Yes Forced : No

Server:
Crystaltorrents

Mission Impossible Rogue Nation 2015 720p HQTS - x264...
General
Complete name : Mission Impossible Rogue Nation 2015
Format : Matroska
Format version : Version 4 / Version 2
File size : 1.09 GiB
Duration : 2h 4mn
Overall bit rate : 1 258 Kbps
Movie name : {fb.com/7starHD}
Video
ID : 2
Format : AVC
Format/Info : Advanced Video Codec
Format profile :
Format settings, CABAC : Yes
Format settings, ReFrames : 4 frames
Codec ID : V_MPEG4/ISO/AVC
Duration : 2h 4mn
Nominal bit rate : 999 Kbps
Width : 1 280 pixels
Height : 532 pixels
Display aspect ratio : 2.40:1
Frame rate mode : Constant
Frame rate : 23.976 fps
Color space : YUV
Chroma subsampling : 4:2:0
Bit depth : 8 bits
Scan type : Progressive
Bits/(Pixel*Frame) : 0.061
Title : {fb.com/7starHD}
Writing library : x264 core 142 r2479 dd79a61
Language : English
Default : Yes
Forced : No
Audio #1
ID : 1
Format : MPEG Audio
Format version : Version 1
Format profile : Layer 3
Mode : Joint stereo
Mode extension : MS Stereo
Codec ID : A_MPEG/L3
Codec ID/Hint : MP3
Duration : 2h 4mn
Bit rate mode : Constant
Bit rate : 128 Kbps
Channel(s) : 2 channels
Sampling rate : 44.1 KHz
Compression mode : Lossy
Delay relative to video : -83ms
Stream size : 114 MiB (10%)
Title : {fb.com/7starHD}
Writing library : LAME3.98.2
Language : hai
Default : No
Forced : No
Audio #2
ID : 3
Format : AAC
Format/Info : Advanced Audio Codec
Format profile : LC
Codec ID : A_AAC
Duration : 2h 4mn
Channel(s) : 2 channels
Channel positions : Front: L R
Sampling rate : 48.0 KHz
Compression mode : Lossy
Delay relative to video : -21ms
Title : {fb.com/7starHD}
Language : English
Default : Yes
Forced : No
........................................................................

Server:
Yourbittorrent

Mission: Impossible Rogue NationEthan Hunt (Tom Cruise) returns for yet another top-secret assignment as hot property screenwriter Drew Pearce (Iron Man 3, Pacific Rim) takes over writing duties for the fifth installment of the phenomenally successful spy franchise. ~ Rovi