picktorrent picktorrent engine
LOGIN REGISTER

Impressive Torrents Picker

ADD     picktorrent  to search engine list

Security note: Downloading torrents is getting riskier everyday. We strongly recommend our users to use SpyOFF VPN to make themselves anonymous while downloading torrents. By using SpyOFF VPN, your ISPs and Government agencies will not be able to spy on you neither would they be able to track your online activities.

Try it for free

Download torrent:
"Resident Evil Extinction ITA ENG AC3 BDRip 1080p X265 ZMachine"

Size: 2.2 GB
Category: Video > BD > HD > X264
Date: 2014-05-13 12:11:27
Seeders: 3
Leechers: 5
Download This Torrent Magnet Link
We picked this "Resident Evil Extinction ITA ENG AC3 BDRip 1080p X265 ZMachine" on: Ahashare, Btarena, Torrentbit, Btscene, Torrentroom, Kickasstorrents, Bitsnoop, Seedpeer, Torrentfunk, Monova

Description

																					

Server:
Ahashare

Resident Evil: Extinction
.: ScreenShot :.
.: Mediainfo :.
Code:
General
Unique ID : 196406841607074959245404399609093309127 (0x93C294EDC9C1BF4C8402973C556442C7)
Complete name : I:SourcesResident Evil X265Resident.Evil.Extinction.ITA.ENG.AC3.BDRip.1080p.X265_ZMachine.mkv
Format : Matroska
Format version : Version 4 / Version 2
File size : 2.19 GiB
Duration : 1h 34mn
Overall bit rate : 3 337 Kbps
Movie name : Resident Evil: Extinction - ZMachine
Encoded date : UTC 2014-05-13 15:40:12
Writing application : mkvmerge v6.9.1 ('Blue Panther') 64bit built on Apr 18 2014 18:23:38
Writing library : libebml v1.3.0 + libmatroska v1.4.1
Video
ID : 1
Format : HEVC
Format/Info : High Efficiency Video Coding
Codec ID : V_MPEGH/ISO/HEVC
Duration : 1h 34mn
Bit rate : 2 375 Kbps
Width : 1 920 pixels
Height : 800 pixels
Display aspect ratio : 2.40:1
Frame rate mode : Constant
Frame rate : 23.976 fps
Bits/(Pixel*Frame) : 0.064
Stream size : 1.56 GiB (71%)
Title : Video H.265 (Encoded By ZMachine)
Default : Yes
Forced : Yes
Audio #1
ID : 2
Format : AC-3
Format/Info : Audio Coding 3
Mode extension : CM (complete main)
Format settings, Endianness : Big
Codec ID : A_AC3
Duration : 1h 34mn
Bit rate mode : Constant
Bit rate : 448 Kbps
Channel(s) : 6 channels
Channel positions : Front: L C R, Side: L R, LFE
Sampling rate : 48.0 KHz
Bit depth : 16 bits
Compression mode : Lossy
Stream size : 302 MiB (13%)
Title : Audio AC3
Language : Italian
Default : Yes
Forced : No
Audio #2
ID : 3
Format : AC-3
Format/Info : Audio Coding 3
Mode extension : CM (complete main)
Format settings, Endianness : Big
Codec ID : A_AC3
Duration : 1h 34mn
Bit rate mode : Constant
Bit rate : 448 Kbps
Channel(s) : 6 channels
Channel positions : Front: L C R, Side: L R, LFE
Sampling rate : 48.0 KHz
Bit depth : 16 bits
Compression mode : Lossy
Stream size : 302 MiB (13%)
Title : Audio AC3
Language : English
Default : No
Forced : No
Text #1
ID : 4
Format : ASS
Codec ID : S_TEXT/ASS
Codec ID/Info : Advanced Sub Station Alpha
Compression mode : Lossless
Title : Sub
Language : Italian
Default : No
Forced : No
Text #2
ID : 5
Format : ASS
Codec ID : S_TEXT/ASS
Codec ID/Info : Advanced Sub Station Alpha
Compression mode : Lossless
Title : Sub
Language : English
Default : No
Forced : No
Menu
00:00:00.000 : Chapter 1
00:07:26.446 : Chapter 2
00:11:08.334 : Chapter 3
00:15:37.937 : Chapter 4
00:20:10.626 : Chapter 5
00:26:11.111 : Chapter 6
00:31:56.414 : Chapter 7
00:36:18.634 : Chapter 8
00:41:21.854 : Chapter 9
00:46:53.310 : Chapter 10
00:50:20.183 : Chapter 11
00:54:20.423 : Chapter 12
01:01:40.196 : Chapter 13
01:08:44.411 : Chapter 14
01:13:46.964 : Chapter 15
01:18:27.661 : Chapter 16
01:23:21.246 : Chapter 17
01:27:30.745 : Chapter 18

Server:
Btarena

Resident Evil: Extinction
.: ScreenShot :.
.: Mediainfo :.
General
Unique ID : 196406841607074959245404399609093309127 (0x93C294EDC9C1BF4C8402973C556442C7)
Complete name : I:SourcesResident Evil X265Resident.Evil.Extinction.ITA.ENG.AC3.BDRip.1080p.X265_ZMachine.mkv
Format : Matroska
Format version : Version 4 / Version 2
File size : 2.19 GiB
Duration : 1h 34mn
Overall bit rate : 3 337 Kbps
Movie name : Resident Evil: Extinction - ZMachine
Encoded date : UTC 2014-05-13 15:40:12
Writing application : mkvmerge v6.9.1 ('Blue Panther') 64bit built on Apr 18 2014 18:23:38
Writing library : libebml v1.3.0 + libmatroska v1.4.1
Video
ID : 1
Format : HEVC
Format/Info : High Efficiency Video Coding
Codec ID : V_MPEGH/ISO/HEVC
Duration : 1h 34mn
Bit rate : 2 375 Kbps
Width : 1 920 pixels
Height : 800 pixels
Display aspect ratio : 2.40:1
Frame rate mode : Constant
Frame rate : 23.976 fps
Bits/(Pixel*Frame) : 0.064
Stream size : 1.56 GiB (71%)
Title : Video H.265 (Encoded By ZMachine)
Default : Yes
Forced : Yes
Audio #1
ID : 2
Format : AC-3
Format/Info : Audio Coding 3
Mode extension : CM (complete main)
Format settings, Endianness : Big
Codec ID : A_AC3
Duration : 1h 34mn
Bit rate mode : Constant
Bit rate : 448 Kbps
Channel(s) : 6 channels
Channel positions : Front: L C R, Side: L R, LFE
Sampling rate : 48.0 KHz
Bit depth : 16 bits
Compression mode : Lossy
Stream size : 302 MiB (13%)
Title : Audio AC3
Language : Italian
Default : Yes
Forced : No
Audio #2
ID : 3
Format : AC-3
Format/Info : Audio Coding 3
Mode extension : CM (complete main)
Format settings, Endianness : Big
Codec ID : A_AC3
Duration : 1h 34mn
Bit rate mode : Constant
Bit rate : 448 Kbps
Channel(s) : 6 channels
Channel positions : Front: L C R, Side: L R, LFE
Sampling rate : 48.0 KHz
Bit depth : 16 bits
Compression mode : Lossy
Stream size : 302 MiB (13%)
Title : Audio AC3
Language : English
Default : No
Forced : No
Text #1
ID : 4
Format : ASS
Codec ID : S_TEXT/ASS
Codec ID/Info : Advanced Sub Station Alpha
Compression mode : Lossless
Title : Sub
Language : Italian
Default : No
Forced : No
Text #2
ID : 5
Format : ASS
Codec ID : S_TEXT/ASS
Codec ID/Info : Advanced Sub Station Alpha
Compression mode : Lossless
Title : Sub
Language : English
Default : No
Forced : No
Menu
00:00:00.000 : Chapter 1
00:07:26.446 : Chapter 2
00:11:08.334 : Chapter 3
00:15:37.937 : Chapter 4
00:20:10.626 : Chapter 5
00:26:11.111 : Chapter 6
00:31:56.414 : Chapter 7
00:36:18.634 : Chapter 8
00:41:21.854 : Chapter 9
00:46:53.310 : Chapter 10
00:50:20.183 : Chapter 11
00:54:20.423 : Chapter 12
01:01:40.196 : Chapter 13
01:08:44.411 : Chapter 14
01:13:46.964 : Chapter 15
01:18:27.661 : Chapter 16
01:23:21.246 : Chapter 17
01:27:30.745 : Chapter 18

Server:
Torrentbit

By ZMachine TNTVillage - Scambioetico

Server:
Kickasstorrents

Movie: Resident Evil: Extinction
IMDB link: 0432021
Detected quality: 1080p
IMDB rating: 6.2 (69,955 votes)
Genres: action, sci-fi, fantasy, thriller, horror
.: Scheda del Film :.
Titolo originale: Resident Evil: Extinction
Nazionalità: USA
Anno: 2007
Genere: Fantascienza
Durata: 95 m
Regia: Russell Mulcahy
Cast:
Milla Jovovich, Oded Fehr, Ali Larter, Iain Glen, Ashanti, Mike Epps, Christopher Egan, Spencer Locke, Jason O’Mara
.: Trama :.
Terzo capitolo della saga di Resident Evil che segna il culmine della lotta di Alice contro l'onnipotente Umbrella Corporation e il virus mortale che trasforma gli esseri umani in zombi. Dopo essere stata catturata e aver subito esperimenti biogenetici che ne hanno modificato le funzioni vitali ma che ne hanno rafforzato i poteri, Alice, che ora si nasconde nel deserto del Nevada, si prepara ad affrontare una lotta senza quartiere con l'aiuto di Carlos Olivera e L.J e altri "sopravvissuti", Claire, K-Mart e Betty.
.: ScreenShot :.
.: Mediainfo :.
General
Unique ID : 196406841607074959245404399609093309127 (0x93C294EDC9C1BF4C8402973C556442C7)
Complete name : I:\Sources\Resident Evil X265\Resident.Evil.Extinction.ITA.ENG.AC3.BDRip.1080p.X265_ZMachine.mkv
Format : Matroska
Format version : Version 4 / Version 2
File size : 2.19 GiB
Duration : 1h 34mn
Overall bit rate : 3 337 Kbps
Movie name : Resident Evil: Extinction - ZMachine
Encoded date : UTC 2014-05-13 15:40:12
Writing application : mkvmerge v6.9.1 ('Blue Panther') 64bit built on Apr 18 2014 18:23:38
Writing library : libebml v1.3.0 + libmatroska v1.4.1
Video
ID : 1
Format : HEVC
Format/Info : High Efficiency Video Coding
Codec ID : V_MPEGH/ISO/HEVC
Duration : 1h 34mn
Bit rate : 2 375 Kbps
Width : 1 920 pixels
Height : 800 pixels
Display aspect ratio : 2.40:1
Frame rate mode : Constant
Frame rate : 23.976 fps
Bits/(Pixel*Frame) : 0.064
Stream size : 1.56 GiB (71%)
Title : Video H.265 (Encoded By ZMachine)
Default : Yes
Forced : Yes
Audio #1
ID : 2
Format : AC-3
Format/Info : Audio Coding 3
Mode extension : CM (complete main)
Format settings, Endianness : Big
Codec ID : A_AC3
Duration : 1h 34mn
Bit rate mode : Constant
Bit rate : 448 Kbps
Channel(s) : 6 channels
Channel positions : Front: L C R, Side: L R, LFE
Sampling rate : 48.0 KHz
Bit depth : 16 bits
Compression mode : Lossy
Stream size : 302 MiB (13%)
Title : Audio AC3
Language : Italian
Default : Yes
Forced : No
Audio #2
ID : 3
Format : AC-3
Format/Info : Audio Coding 3
Mode extension : CM (complete main)
Format settings, Endianness : Big
Codec ID : A_AC3
Duration : 1h 34mn
Bit rate mode : Constant
Bit rate : 448 Kbps
Channel(s) : 6 channels
Channel positions : Front: L C R, Side: L R, LFE
Sampling rate : 48.0 KHz
Bit depth : 16 bits
Compression mode : Lossy
Stream size : 302 MiB (13%)
Title : Audio AC3
Language : English
Default : No
Forced : No
Text #1
ID : 4
Format : ASS
Codec ID : S_TEXT/ASS
Codec ID/Info : Advanced Sub Station Alpha
Compression mode : Lossless
Title : Sub
Language : Italian
Default : No
Forced : No
Text #2
ID : 5
Format : ASS
Codec ID : S_TEXT/ASS
Codec ID/Info : Advanced Sub Station Alpha
Compression mode : Lossless
Title : Sub
Language : English
Default : No
Forced : No
Menu
00:00:00.000 : Chapter 1
00:07:26.446 : Chapter 2
00:11:08.334 : Chapter 3
00:15:37.937 : Chapter 4
00:20:10.626 : Chapter 5
00:26:11.111 : Chapter 6
00:31:56.414 : Chapter 7
00:36:18.634 : Chapter 8
00:41:21.854 : Chapter 9
00:46:53.310 : Chapter 10
00:50:20.183 : Chapter 11
00:54:20.423 : Chapter 12
01:01:40.196 : Chapter 13
01:08:44.411 : Chapter 14
01:13:46.964 : Chapter 15
01:18:27.661 : Chapter 16
01:23:21.246 : Chapter 17
01:27:30.745 : Chapter 18
.: Note :.
Total Encoding time: 4 h 50 m
_scq.push();
Sharing Widget
Download torrent
2.19 GB
seeders:11
leechers:4