picktorrent picktorrent engine
LOGIN REGISTER

Impressive Torrents Picker

ADD     picktorrent  to search engine list

Security note: Downloading torrents is getting riskier everyday. We strongly recommend our users to use SpyOFF VPN to make themselves anonymous while downloading torrents. By using SpyOFF VPN, your ISPs and Government agencies will not be able to spy on you neither would they be able to track your online activities.

Try it for free

Download torrent:
"Сериал Убийство, 2 сезон 1-10 серии из 10 скачать бесплатно через торрент. Убийство, 2 сезон 1-10 серии из 10 / Forbrydelsen"

Size: 15.8 GB
Category: Other
Date: 2012-03-15 06:34:41
Seeders: 3
Leechers: 0
Download This Torrent Magnet Link
We picked this "Сериал Убийство, 2 сезон 1-10 серии из 10 скачать бесплатно через торрент. Убийство, 2 сезон 1-10 серии из 10 / Forbrydelsen" on: Filesh

Description

																					

Server:
Filesh

Убийство, 2 сезон 1-10 серии из 10 / Forbrydelsen (Кристоффер Нюхольм) [2009, триллер, драма, криминал, детектив, BDRip 720p, P]
Сезон 2 Серии 1-10
Перевод:Профессиональный (Многоголосый, закадровый)Субтитры:Отсутствуют
Формат:BDRip, MKV, H264, AC3
Страна:Дания, Норвегия, Швеция | Danmarks Radio (DR)
Режиссер:Кристоффер Нюхольм, Ганс Фабиан Вулленвебер, Шарлотта Зилинг
Жанр:триллер, драма, криминал, детектив
Всего серий:10
Продолжительность:10 х ~00:55:00
Год выпуска:2009
В ролях:Софи Гробeль, Бьярне Хенриксен, Ларс Миккельсен, Анн Элеонора Ёргенсен, Мари Аскхейв, Майкл Моритцен, Сорен Мэллинг Описание: Жестокое убийство молодой девушки влечет за собой затяжное полицейское разбирательство. Детектив Сара Лунд, собиравшаяся вслед за женихом переехать из Дании в Швецию, вынуждена остаться, чтобы расследовать это дело. Первое подозрение падает на кандидата на пост мэра Копенгагена Tроэлса Хартманна. Однако вскоре Сара приходит к выводу, что, несмотря на очевидную связь политика с преступлением, круг подозреваемых, возможно окажется, гораздо шире, ведь убийца мог руководствоваться не только политическими, но и личными мотивами..
Рейтинг:
Видео:1280x720 (1.77:1), 25 fps, AVC (x264), High@ L4.1 ~3179 kbps avg, 0.138 bit/pixel.
Аудио Rus:48 kHz, AC3 Dolby Digital, 3/2 (L, C, R, l, r) + LFE ch, ~384 kbps.
Аудио Ger:48 kHz, AC3 Dolby Digital, 3/2 (L, C, R, l, r) + LFE ch, ~384 kbps.
Релиз:
Перевод:Lub_a, Владимир Крылов, Юлия Луцкая
Озвучка:Татьяна Оболевич, Юлия Котурбаш, Алексей Кузнецов и Олекса Мельник
MediaInfoФормат : Matroska
Версия формата : Version 2
Размер файла : 1, 61 Гбайт
Продолжительность : 57 м.
Общий поток : 4027 Кбит/сек
Название фильма : BaibaKo.tv presents - Убийство 2x01
Дата кодирования : UTC 2012-01-25 14:24:16
Программа кодирования : mkvmerge v5.0.0 ('Die Wahre Liebe') built on Sep 25 2011 20:33:49
Библиотека кодирования : libebml v1.2.2 + libmatroska v1.3.0
Видео
Идентификатор : 1
Формат : AVC
Формат/Информация : Advanced Video Codec
Профиль формата : High@L4.1
Параметр CABAC формата : Да
Параметр ReFrames формата : 5 кадров
Идентификатор кодека : V_MPEG4/ISO/AVC
Продолжительность : 57 м.
Битрейт : 3179 Кбит/сек
Номинальный битрейт : 3338 Кбит/сек
Ширина : 1280 пикселей
Высота : 720 пикселей
Соотношение сторон : 16:9
Частота кадров : 25, 000 кадров/сек
Цветовое пространство : YUV
Субдискретизация насыщенности : 4:2:0
Битовая глубина : 8 бит
Тип развёртки : Прогрессивная
Бит/(Пиксели*Кадры) : 0.138
Размер потока : 1, 27 Гбайт (79%)
Библиотека кодирования : x264 core 104 r1703 cd21d05
Настройки программы : cabac=1 / ref=5 / deblock=1:-1:-1 / analyse=0x3:0x113 / me=hex / subme=7 / psy=1 / psy_rd=1.00:0.15 / mixed_ref=1 / me_range=16 / chroma_me=1 / trellis=1 / 8x8dct=1 / cqm=0 / deadzone=21, 11 / fast_pskip=0 / chroma_qp_offset=-3 / threads=12 / sliced_threads=0 / nr=0 / decimate=1 / interlaced=0 / constrained_intra=0 / bframes=3 / b_pyramid=2 / b_adapt=1 / b_bias=0 / direct=1 / weightb=1 / open_gop=0 / weightp=2 / keyint=250 / keyint_min=25 / scenecut=40 / intra_refresh=0 / rc_lookahead=30 / rc=2pass / mbtree=1 / bitrate=3338 / ratetol=1.0 / qcomp=0.60 / qpmin=10 / qpmax=51 / qpstep=4 / cplxblur=20.0 / qblur=0.5 / ip_ratio=1.40 / aq=1:1.00
Default : Да
Forced : Нет
Аудио #1
Идентификатор : 2
Формат : AC-3
Формат/Информация : Audio Coding 3
Расширение режима : CM (complete main)
Идентификатор кодека : A_AC3
Продолжительность : 57 м.
Вид битрейта : Постоянный
Битрейт : 384 Кбит/сек
Каналы : 6 каналов
Расположение каналов : Front: L C R, Side: L R, LFE
Частота : 48, 0 КГц
Битовая глубина : 16 бит
Метод сжатия : С потерями
Размер потока : 158 Мбайт (10%)
Заголовок : Rus BaibaKo.tv DD5.1
Язык : Russian
Default : Да
Forced : Нет
Аудио #2
Идентификатор : 3
Формат : AC-3
Формат/Информация : Audio Coding 3
Расширение режима : CM (complete main)
Идентификатор кодека : A_AC3
Продолжительность : 57 м.
Вид битрейта : Постоянный
Битрейт : 384 Кбит/сек
Каналы : 6 каналов
Расположение каналов : Front: L C R, Side: L R, LFE
Частота : 48, 0 КГц
Битовая глубина : 16 бит
Метод сжатия : С потерями
Размер потока : 158 Мбайт (10%)
Заголовок : Ger DD5.1
Язык : German
Default : Нет
Forced : Нет