picktorrent picktorrent engine
LOGIN REGISTER

Impressive Torrents Picker

ADD     picktorrent  to search engine list

Security note: Downloading torrents is getting riskier everyday. We strongly recommend our users to use SpyOFF VPN to make themselves anonymous while downloading torrents. By using SpyOFF VPN, your ISPs and Government agencies will not be able to spy on you neither would they be able to track your online activities.

Try it for free

Download torrent:
"Spartacus S03 1080i HDTV Rus Eng HDCLUB"

Size: 45.9 GB
Category: Other > Others > Others
Date: 2013-12-11 19:48:36
Seeders: 0
Leechers: 0
Download This Torrent Magnet Link
We picked this "Spartacus S03 1080i HDTV Rus Eng HDCLUB" on: Torrentroom, Monova, Limetorrents, Kickasstorrents, Seedpeer, Bitsnoop, Filesh, Torrentfunk

Description

																					

Server:
Monova

Season 3 Series 1-10
Video : 1920x1080 (1.77:1), 29,970 fps, MPEG2,
Main @ High ~ 11,3 mbps avg, 0.182 bit / pixel.
Audio Rus: 48 kHz, AC3 Dolby Digital, 3/2 (L, C,
R, l, r) + LFE ch, ~ 384 kbps.
Audio Eng: 48 kHz, AC3 Dolby Digital, 3/2 (L, C,
R, l, r) + LFE ch, ~ 384 kbps.
Translation: Professional ( Polyphony, voice )
[LostFilm] Subtitles : None
Slogan: " Some legends are written in blood "
Format : HDTV, TS, MPEG2, AC3
Country : United States | Starz Media
Director: Michael Hurst , Rick Jacobson , Jesse
Uarn
Genre: Action, Adventure, Drama , Biography ,
History
Total Episodes: 10
Duration: 10 x 00:50
Year: 2013
Starring: Liam McIntyre , Manu Bennett , Dustin
Clare , Cynthia Addai - Robinson, Peter Mensah ,
Nick Tarabey , Lucy Lawless , Viva Bianca , Craig
Parker
Description: To revolt of Spartacus joined by
thousands . Together with Crixus and Gannicus he
wins a Roman commander after another. Desperate,
Rome appealed for help to the rich , ambitious
young Marcus Crassus and Julius Caesar ..

Server:
Kickasstorrents

Season 3 Series 1-10
Video : 1920x1080 (1.77:1), 29,970 fps, MPEG2, Main @ High ~ 11,3 mbps avg, 0.182 bit / pixel.
Audio Rus: 48 kHz, AC3 Dolby Digital, 3/2 (L, C, R, l, r) + LFE ch, ~ 384 kbps.
Audio Eng: 48 kHz, AC3 Dolby Digital, 3/2 (L, C, R, l, r) + LFE ch, ~ 384 kbps.
Translation: Professional ( Polyphony, voice ) [LostFilm] Subtitles : None
Slogan: " Some legends are written in blood "
Format : HDTV, TS, MPEG2, AC3
Country : United States | Starz Media
Director: Michael Hurst , Rick Jacobson , Jesse Uarn
Genre: Action, Adventure, Drama , Biography , History
Total Episodes: 10
Duration: 10 x 00:50
Year: 2013
Starring: Liam McIntyre , Manu Bennett , Dustin Clare , Cynthia Addai - Robinson, Peter Mensah , Nick Tarabey , Lucy Lawless , Viva Bianca , Craig Parker
Description: To revolt of Spartacus joined by thousands . Together with Crixus and Gannicus he wins a Roman commander after another. Desperate, Rome appealed for help to the rich , ambitious young Marcus Crassus and Julius Caesar ..

Server:
Filesh

Спартак: Война Проклятых, 3 сезон 1-10 серии из 10 / Spartacus: War of the Damned (Майкл Херст) [2013, Боевик, Приключения, Биография, История, HDTV 1080i, P]
Сезон 3 Серии 1-10
Перевод:Профессиональный (Многоголосый, закадровый)Субтитры:Отсутствуют
Слоган:«Некоторые легенды написаны кровью»
Формат:HDTV, TS, MPEG2, AC3
Страна:США | Starz Media
Режиссер:Майкл Херст, Рик Джейкобсон, Джесси Уарн
Жанр:Боевик, Драма, Приключения, Биография, История
Всего серий:10
Продолжительность:10 х 00:50
Год выпуска:2013
В ролях:Лиам Макинтайр, Ману Беннетт, Дастин Клер, Синтия Аддай-Робинсон, Питер Менса, Ник Тарабэй, Люси Лоулесс, Вива Бьянка, Крэйг Паркер Описание: К восстанию Спартака присоединились тысячи. Вместе с Криксом и Ганником он побеждает одного римского командира за другим. Отчаявшись, Рим обращается за помощью к богатому, амбициозному Марку Крассу и молодому Юлию Цезарю.. Рейтинг: Видео: 1920x1080 (1.77:1), 29, 970 fps, MPEG2, Main@High ~11, 3 mbps avg, 0.182 bit/pixel.
Аудио Rus:48 kHz, AC3 Dolby Digital, 3/2 (L, C, R, l, r) + LFE ch, ~384 kbps.
Аудио Eng:48 kHz, AC3 Dolby Digital, 3/2 (L, C, R, l, r) + LFE ch, ~384 kbps.
Релиз:
Озвучка:© «Кравец»
MediaInfoФормат : MPEG-TS
Размер файла : 4, 52 Гбайт
Продолжительность : 50 м.
Режим общего битрейта : Переменный
Общий поток : 12, 7 Мбит/сек
Максимальный общий битрейт : 35, 5 Мбит/сек
Видео
Идентификатор : 4113 (0x1011)
Идентификатор меню : 1 (0x1)
Формат : MPEG Video
Версия формата : Version 2
Профиль формата : Main@High
Параметр BVOP формата : Да
Параметр матрицы формата : Выборочная
Идентификатор кодека : 2
Продолжительность : 50 м.
Вид битрейта : Переменный
Битрейт : 11, 3 Мбит/сек
Максимальный битрейт : 11, 6 Мбит/сек
Ширина : 1920 пикселей
Высота : 1080 пикселей
Соотношение сторон : 16:9
Частота кадров : 29, 970 кадров/сек
Стандарт вещания : NTSC
Цветовое пространство : YUV
Субдискретизация насыщенности : 4:2:0
Битовая глубина : 8 бит
Тип развёртки : Чересстрочная
Порядок развёртки : Верхнее поле первое
Метод сжатия : С потерями
Бит/(Пиксели*Кадры) : 0.182
Размер потока : 4, 02 Гбайт (89%)
Основные цвета : BT.470-2 system M
Характеристики трансфера : BT.470-2 System M
Коэффициенты матрицы : BT.470-2 System B, BT.470-2 System G
Аудио #1
Идентификатор : 4352 (0x1100)
Идентификатор меню : 1 (0x1)
Формат : AC-3
Формат/Информация : Audio Coding 3
Расширение режима : CM (complete main)
Идентификатор кодека : 129
Продолжительность : 50 м.
Вид битрейта : Постоянный
Битрейт : 384 Кбит/сек
Каналы : 6 каналов
Расположение каналов : Front: L C R, Side: L R, LFE
Частота : 48, 0 КГц
Битовая глубина : 16 бит
Метод сжатия : С потерями
Размер потока : 139 Мбайт (3%)
Язык : Russian
Аудио #2
Идентификатор : 4353 (0x1101)
Идентификатор меню : 1 (0x1)
Формат : AC-3
Формат/Информация : Audio Coding 3
Расширение режима : CM (complete main)
Идентификатор кодека : 129
Продолжительность : 50 м.
Вид битрейта : Постоянный
Битрейт : 384 Кбит/сек
Каналы : 6 каналов
Расположение каналов : Front: L C R, Side: L R, LFE
Частота : 48, 0 КГц
Битовая глубина : 16 бит
Метод сжатия : С потерями
Размер потока : 139 Мбайт (3%)
Язык : English
Текст
Идентификатор : 4113 (0x1011)-CC1
Идентификатор меню : 1 (0x1)
Формат : EIA-608
Режим смешивания : A/53 / DTVCC Transport
Режим смешивания, доп. информация : Muxed in Video #1
Продолжительность : 50 м.
Вид битрейта : Постоянный
Размер потока : 0, 00 байт (0%)