picktorrent picktorrent engine

Impressive Torrents Picker

ADD     picktorrent  to search engine list

Security note: Downloading torrents is getting riskier everyday. We strongly recommend our users to use SpyOFF VPN to make themselves anonymous while downloading torrents. By using SpyOFF VPN, your ISPs and Government agencies will not be able to spy on you neither would they be able to track your online activities.

Try it for free

Download torrent:
"The.Fate.of.the.Furious.2017.HDCAM.HQMic.XVID.AC3.HQ.Hive-CM8"

Size: 1.9 GB Category: Video > Other Date: 2017-04-14 10:24:34
Seeders: 2229 Leechers: 815
Download This Torrent Magnet Link
We picked this "The.Fate.of.the.Furious.2017.HDCAM.HQMic.XVID.AC3.HQ.Hive-CM8" on: Torrentbit, Limetorrents, GlodlsTo

Description

																					

Server:
Torrentbit

http://www.imdb.com/title/tt4630562/ When a mysterious woman seduces Dom into the world of terrorism and a betrayal of those closest to him, the crew face trials that will test them as never before. Director: F. Gary Gray Writers: Chris Morgan, Gary Scott Thompson (based on characters created by) Stars: Vin Diesel, Jason Statham, Dwayne Johnson Genres: Action | Crime | Thriller Country: USA The.Fate.of.the.Furious.2017.HDCAM.HQMic.XVID.AC3.HQ.Hive-CM8 Thx Hive CM8 Doing It Right The First Time Sources: Video: Latino Audio: friend big thx m8 Notes: Got this great cam for this hot new movie, quality was very nice and bright and video is complete too. Audio is very good too nearly sounds like line, fits perfectly together! Encode: not much to do quality was already nice enough only did the usual touch. will do me till webdl/retail, thats the version to get, jump on enjoy Video: 720x304 @bitrate 1800 2pass Audio: English HQMic AC3 2.0 stereo Sample: yes 2 included http://www.imdb.com/title/tt4630562/ General Complete name : The.Fate.of.the.Furious.2017.HDCAM.HQMic.XVID.AC3.HQ.Hive-CM8.avi Format : AVI Format/Info : Audio Video Interleave File size : 1.83 GiB Duration : 2h 6mn Overall bit rate : 2 067 Kbps Writing application : Nandub v1.0rc2 Writing library : Nandub build 1853/release Video ID : 0 Format : MPEG-4 Visual Format profile : Advanced /* */ Format settings, BVOP : 2 Format settings, QPel : Yes Format settings, GMC : No warppoints Format settings, Matrix : Default (H.263) Muxing mode : Packed bitstream Codec ID : XVID Codec ID/Hint : XviD Duration : 2h 6mn Bit rate : 1 800 Kbps Width : 720 pixels Height : 304 pixels Display aspect ratio : 2.35:1 Frame rate : 29.970 fps Color space : YUV Chroma subsampling : 4:2:0 Bit depth : 8 bits Scan type : Progressive Compression mode : Lossy Bits/(Pixel*Frame) : 0.274 Stream size : 1.59 GiB (87%) Writing library : XviD 1.2.1 (UTC 2008-12-04) Audio ID : 1 Format : AC-3 Format/Info : Audio Coding 3 Mode extension : CM (complete main) Format settings, Endianness : Big Codec ID : 2000 Duration : 2h 6mn Bit rate mode : Constant Bit rate : 256 Kbps Channel(s) : 2 channels Channel positions : Front: L R Sampling rate : 48.0 KHz Bit depth : 16 bits Compression mode : Lossy Delay relative to video : 28ms Stream size : 232 MiB (12%) Alignment : Split accross interleaves Interleave, duration : 33 ms (1.00 video frame) Interleave, preload duration : 500 ms

Server:
GlodlsTo

No description available.