picktorrent picktorrent engine
LOGIN REGISTER

Impressive Torrents Picker

ADD     picktorrent  to search engine list

Security note: Downloading torrents is getting riskier everyday. We strongly recommend our users to use SpyOFF VPN to make themselves anonymous while downloading torrents. By using SpyOFF VPN, your ISPs and Government agencies will not be able to spy on you neither would they be able to track your online activities.

Try it for free

Download torrent:
"The Secret Of Moonacre 2008 1080p BluRay H264 AAC-RARBG"

Size: 2 GB
Category: Video > Movies
Date: 2015-08-01 19:41:52
Seeders: 6
Leechers: 6
Download This Torrent Magnet Link
We picked this "The Secret Of Moonacre 2008 1080p BluRay H264 AAC-RARBG" on: Kickasstorrents, Torrentroom, Seedpeer, Torrentfunk

Description

																					

Server:
Kickasstorrents

https://rarbg.to
The.Secret.of.Moonacre.2008.1080p.BluRay.H264.AAC-RARBG
Screens :
Mediainfo :
Video
ID : 1
Format : AVC
Format/Info : Advanced Video Codec
Format profile : High@L4.1
Format settings, CABAC : Yes
Format settings, ReFrames : 4 frames
Codec ID : avc1
Codec ID/Info : Advanced Video Coding
Duration : 1h 43mn
Bit rate : 2 500 Kbps
Width : 1 920 pixels
Height : 816 pixels
Display aspect ratio : 2.35:1
Frame rate mode : Constant
Frame rate : 24.000 fps
Color space : YUV
Chroma subsampling : 4:2:0
Bit depth : 8 bits
Scan type : Progressive
Bits/(Pixel*Frame) : 0.066
Stream size : 1.80 GiB (92%)
Writing library : x264 core 144 r2525M 40bb568
Encoding settings : cabac=1 / ref=4 / deblock=1:-1:-1 / analyse=0x3:0x113 / me=umh / subme=9 / psy=1 / psy_rd=1.00:0.15 / mixed_ref=1 / me_range=24 / chroma_me=1 / trellis=2 / 8x8dct=1 / cqm=0 / deadzone=21,11 / fast_pskip=1 / chroma_qp_offset=-3 / threads=32 / lookahead_threads=4 / sliced_threads=0 / nr=0 / decimate=1 / interlaced=0 / bluray_compat=0 / constrained_intra=0 / bframes=3 / b_pyramid=2 / b_adapt=1 / b_bias=0 / direct=1 / weightb=1 / open_gop=0 / weightp=2 / keyint=250 / keyint_min=25 / scenecut=40 / intra_refresh=0 / rc_lookahead=50 / rc=2pass / mbtree=1 / bitrate=2500 / ratetol=1.0 / qcomp=0.60 / qpmin=0 / qpmax=69 / qpstep=4 / cplxblur=20.0 / qblur=0.5 / vbv_maxrate=31250 / vbv_bufsize=31250 / nal_hrd=none / filler=0 / ip_ratio=1.40 / aq=3:1.00
Encoded date : UTC 1904-01-01 00:00:00
Tagged date : UTC 1904-01-01 00:00:00
Audio
ID : 2
Format : AAC
Format/Info : Advanced Audio Codec
Format profile : LC
Codec ID : 40
Duration : 1h 43mn
Bit rate mode : Constant
Bit rate : 224 Kbps
Channel(s) : 2 channels
Channel(s)_Original : 6 channels
Channel positions : Front: L C R, Side: L R, LFE
Sampling rate : 48.0 KHz
Compression mode : Lossy
Stream size : 165 MiB (8%)
Language : English
Encoded date : UTC 1904-01-01 00:00:00
Tagged date : UTC 1904-01-01 00:00:00