picktorrent picktorrent engine

Impressive Torrents Picker

ADD     picktorrent  to search engine list

Security note: Downloading torrents is getting riskier everyday. We strongly recommend our users to use SpyOFF VPN to make themselves anonymous while downloading torrents. By using SpyOFF VPN, your ISPs and Government agencies will not be able to spy on you neither would they be able to track your online activities.

Try it for free

Download torrent:
"VA NRJ Summer Hits Only 2010-2CD-2010-H5N1][Mp3][320kbs][Hectorbusinspector]"

Size: 333 MB Category: Music > All Date: 2010-07-01 16:59:57
Seeders: 0 Leechers: 2
Download This Torrent Magnet Link
We picked this "VA NRJ Summer Hits Only 2010-2CD-2010-H5N1][Mp3][320kbs][Hectorbusinspector]" on: Ahashare, Torrentroom, Kickasstorrents, Filesh, Torrentfunk, Torrentmonkeys, Seedpeer, Sumotorrent, Yourbittorrent, Monova

Description

																					

Server:
Ahashare

H5N1 released a 2CD Pop compilation titled “NRJ Summer Hits Only 2010? which is scheduled to be released on june 28, 2010.
Track List cd1:
01 Train – Hey, Soul Sister
02 Christophe Mae – J’ai laisse
03 Sean Paul feat Zaho – Hold My Hand
04 B.o.B feat Bruno Mars – Nothin On You
05 Zaz – Je Veux
06 Remady feat Manu-L – Give Me A Sign
07 Klaas – Our Own Way
08 Gossip – Love Long Distance
09 Lucenzo feat Big Ali – Vem Dancar Kuduro
10 Taio Cruz feat Ludacris – Break Your Heart
11 Coeur De Pirate – Ensemble
12 Milow – One Of It
13 Joyce Jonathan – Je Ne Sais Pas
14 Pony Pony Run Run – Hey You
15 Onerepublic – All The Right Moves
16 Robert Francis – Junebug
17 Jason Derulo – In My Head
18 Charice feat Iyaz – Pyramid
19 Justin Nozuka – Heartless
20 Lady Gaga – Telephone
21 Inna – Amazing
Track List cd2:
01 Sexion D’assaut – Desole
02 Plan B – She Said
03 Rihanna – Te Amo
04 Shy’m – Je Sais
05 Mika – Blame It On The Girls
06 Collectif Metisse – Debout Pour Danser
07 Kesha – Your Love Is My Drug
08 Fatal Bazooka feat Big Ali, PZK, Dogg Soso & Dj Chris Prolls – Ce Matin Va Etre Une Pure Soiree
09 Black Eyed Peace – Rock That Body
10 Example – Won’t Go Quietly
11 Stromae – Alors On Danse
12 CAscada – Pyromania
13 Justin Bieber feat Ludacris – Baby
14 Dan Balan – Chicabomb
15 VV Brown – Shark In The Water
16 Mr Kingsize feat Dr Yugo – Le Papapa Style
17 Edward Maya feat Vika Jigulina – This Is My Life
18 King Kuduro – Le Son Qu’il Te Faut
19 Spankers – Sex One The Beach
20 Jay Sean feat Sean Paul & Lil’ Jon – Do You Remember
21 Bel Air Deejayz – Tu Fesses B’hook
Release Name: VA-NRJ_Summer_Hits_Only_2010-2CD-2010-H5N1
Genre: Pop
Label: WEA Music / Warner Music France
Size: 200.4 MB
Rip Date: 2010-06-27
Store Date: 2010-06-28
ormat : MPEG Audio
File size : 8.20 MiB
Duration : 3mn 34s
Overall bit rate : 320 Kbps
Album : NRJ Summer Hits Only 2010
Track name : Hey, Soul Sister
Track name/Position : 1
Performer : Train
Recorded date : 2010
Writing library : / LAME3.92
Audio
Format : MPEG Audio
Format version : Version 1
Format profile : Layer 3
Mode : Joint stereo
Duration : 3mn 34s
Bit rate mode : Constant
Bit rate : 320 Kbps
Channel(s) : 2 channels
Sampling rate : 44.1 KHz
Stream size : 8.20 MiB (100%)
Writing library : LAME3.92

Server:
Kickasstorrents

H5N1 released a 2CD Pop compilation titled “NRJ Summer Hits Only 2010? which is scheduled to be released on june 28, 2010.
Track List cd1:
01 Train – Hey, Soul Sister
02 Christophe Mae – J’ai laisse
03 Sean Paul feat Zaho – Hold My Hand
04 B.o.B feat Bruno Mars – Nothin On You
05 Zaz – Je Veux
06 Remady feat Manu-L – Give Me A Sign
07 Klaas – Our Own Way
08 Gossip – Love Long Distance
09 Lucenzo feat Big Ali – Vem Dancar Kuduro
10 Taio Cruz feat Ludacris – Break Your Heart
11 Coeur De Pirate – Ensemble
12 Milow – One Of It
13 Joyce Jonathan – Je Ne Sais Pas
14 Pony Pony Run Run – Hey You
15 Onerepublic – All The Right Moves
16 Robert Francis – Junebug
17 Jason Derulo – In My Head
18 Charice feat Iyaz – Pyramid
19 Justin Nozuka – Heartless
20 Lady Gaga – Telephone
21 Inna – Amazing
Track List cd2:
01 Sexion D’assaut – Desole
02 Plan B – She Said
03 Rihanna – Te Amo
04 Shy’m – Je Sais
05 Mika – Blame It On The Girls
06 Collectif Metisse – Debout Pour Danser
07 Kesha – Your Love Is My Drug
08 Fatal Bazooka feat Big Ali, PZK, Dogg Soso & Dj Chris Prolls – Ce Matin Va Etre Une Pure Soiree
09 Black Eyed Peace – Rock That Body
10 Example – Won’t Go Quietly
11 Stromae – Alors On Danse
12 CAscada – Pyromania
13 Justin Bieber feat Ludacris – Baby
14 Dan Balan – Chicabomb
15 VV Brown – Shark In The Water
16 Mr Kingsize feat Dr Yugo – Le Papapa Style
17 Edward Maya feat Vika Jigulina – This Is My Life
18 King Kuduro – Le Son Qu’il Te Faut
19 Spankers – Sex One The Beach
20 Jay Sean feat Sean Paul & Lil’ Jon – Do You Remember
21 Bel Air Deejayz – Tu Fesses B’hook
Release Name: VA-NRJ_Summer_Hits_Only_2010-2CD-2010-H5N1
Genre: Pop
Label: WEA Music / Warner Music France
Size: 200.4 MB
Rip Date: 2010-06-27
Store Date: 2010-06-28
ormat : MPEG Audio
File size : 8.20 MiB
Duration : 3mn 34s
Overall bit rate : 320 Kbps
Album : NRJ Summer Hits Only 2010
Track name : Hey, Soul Sister
Track name/Position : 1
Performer : Train
Recorded date : 2010
Writing library : / LAME3.92
Audio
Format : MPEG Audio
Format version : Version 1
Format profile : Layer 3
Mode : Joint stereo
Duration : 3mn 34s
Bit rate mode : Constant
Bit rate : 320 Kbps
Channel(s) : 2 channels
Sampling rate : 44.1 KHz
Stream size : 8.20 MiB (100%)
Writing library : LAME3.92