picktorrent picktorrent engine

Impressive Torrents Picker

ADD     picktorrent  to search engine list

Security note: Downloading torrents is getting riskier everyday. We strongly recommend our users to use SpyOFF VPN to make themselves anonymous while downloading torrents. By using SpyOFF VPN, your ISPs and Government agencies will not be able to spy on you neither would they be able to track your online activities.

Try it for free

Download torrent:
"What We Do in the Shadows 2014 1080p BluRay 5 1 x264 NVEE"

Size: 1.8 GB Category: Video > Movies - Other Date: 2015-05-23 09:44:26
Seeders: 9 Leechers: 0
Download This Torrent Magnet Link
We picked this "What We Do in the Shadows 2014 1080p BluRay 5 1 x264 NVEE" on: Bittorrentz, Sumotorrent, Torrentroom, Thepiratebay, Limetorrents, Torrentfunk, GlodlsTo, Yourbittorrent

Description

																					

Server:
Bittorrentz

Hello, good day for downloading! Information about the torrent What We Do in the Shadows 2014 1080p BluRay 5 1 x264 NVEE, seeders, leechers and torrent status is updated everyday on our search engine Picktorrent. Keep this torrent alive don't stop seeding!

Server:
Thepiratebay

Quick note :
Trackers refresh never most current & so if,
You require a torrent release I have posted in the past, not seeding,...
Please do not hesitate to inform me in any means you find fit to do so.
Torrent requests also "Always Welcome."
FULL_INFOs
99.99% >>> SYNCED GUARANTEED
"Totally scrutinized / analyzed to be a verified torrent."
___________________________________________
Source : Blu-ray ~ 1080p
Spoken Language : English
Audio : 6 ~ Channels Only
Subs Info :
x3 ~ Multisubs .srt
All .srt UTF-8 .idx & .ass subs can be turned On/Off
_____________________________________
---------------------------------------------------------------------------------
General Metadata
Complete name : What We Do in the Shadows 2014 1080p.BluRay.5.1.x264 . NVEE.mp4
Format : MPEG-4
Format profile : Base Media
Codec ID : isom
File size : 1.83 GiB
Duration : 1h 25mn
Overall bit rate : 3 067 Kbps
Encoded date : UTC 2015-05-17 11:09:06
Tagged date : UTC 2015-05-17 11:09:06
Video
ID : 1
Format : AVC
Format/Info : Advanced Video Codec
Format profile :
/* */
Format settings, CABAC : Yes
Format settings, ReFrames : 5 frames
Codec ID : avc1
Codec ID/Info : Advanced Video Coding
Duration : 1h 25mn
Bit rate : 2 425 Kbps
Maximum bit rate : 16.9 Mbps
Width : 1 920 pixels
Height : 1 040 pixels
Display aspect ratio : 1.85:1
Frame rate mode : Constant
Frame rate : 24.000 fps
Color space : YUV
Chroma subsampling : 4:2:0
Bit depth : 8 bits
Scan type : Progressive
Bits/(Pixel*Frame) : 0.051
Stream size : 1.45 GiB (79%)
Writing library : x264 core 146 r2538 121396c
Encoded from Physical Blu-ray / Region B
Audio
ID : 2
Format : AC-3
Format/Info : Audio Coding 3
Mode extension : CM (complete main)
Format settings, Endianness : Big
Codec ID : ac-3
Duration : 1h 25mn
Bit rate mode : Constant
Bit rate : 640 Kbps
Maximum bit rate : 676 Kbps
Channel(s) : 6 channels
Channel positions : Front: L C R, Side: L R, LFE
Sampling rate : 48.0 KHz
Bit depth : 16 bits
Compression mode : Lossy
Stream size : 391 MiB (21%)
Encoded date : UTC 2015-05-17 11:15:26
Tagged date : UTC 2015-05-17 11:17:47
Encoded from Physical Blu-ray 6 Channel audio "Always".
Enj0y !

Server:
Limetorrents

Movies : Comedy : Blu-ray : English
Quick note :Trackers refresh never most current & so if,You require a torrent
release I have posted in the past, not seeding,...Please do not hesitate to inform me in any means you find fit to
do so.Torrent requests also "Always Welcome." FULL_INFOs99.99% >>> SYNCED GUARANTEED "Totally scrutinized / analyzed to be a verified torrent."___________________________________________Source : Blu-ray ~ 1080p Spoken Language : EnglishAudio : 6 ~ Channels
Only Subs Info :x3 ~ Multisubs .srtAll .srt UTF-8 .idx & .ass subs can be turned On/Off_____________________________________--------------------------------------------------------------------------------- General MetadataComplete name : What We Do in the
Shadows 2014 1080p.BluRay.5.1.x264 . NVEE.mp4Format : MPEG-4Format profile : Base MediaCodec ID :
isomFile size : 1.83 GiBDuration : 1h 25mnOverall bit rate : 3 067 KbpsEncoded date : UTC
2015-05-17 11:09:06Tagged date : UTC 2015-05-17 11:09:06 VideoID : 1Format : AVCFormat/Info :
Advanced Video CodecFormat profile : /* */Format settings, CABAC : YesFormat settings, ReFrames : 5 framesCodec ID : avc1Codec ID/Info : Advanced Video CodingDuration
: 1h 25mnBit rate : 2 425 KbpsMaximum bit rate : 16.9 MbpsWidth : 1 920 pixelsHeight : 1
040 pixelsDisplay aspect ratio : 1.85:1Frame rate mode : ConstantFrame rate : 24.000 fpsColor
space : YUVChroma subsampling : 4:2:0Bit depth : 8 bitsScan type : ProgressiveBits/(Pixel*Frame) : 0.051Stream size : 1.45 GiB (79%)Writing library : x264 core 146 r2538 121396cEncoded from Physical Blu-ray / Region B AudioID : 2Format : AC-3Format/Info :
Audio Coding 3Mode extension : CM (complete main)Format settings, Endianness : BigCodec ID :
ac-3Duration : 1h 25mnBit rate mode : ConstantBit rate : 640 KbpsMaximum bit rate : 676
KbpsChannel(s) : 6 channelsChannel positions : Front: L C R, Side: L R, LFESampling rate : 48.0
KHzBit depth : 16 bitsCompression mode : LossyStream size : 391 MiB (21%)Encoded date : UTC
2015-05-17 11:15:26Tagged date : UTC 2015-05-17 11:17:47Encoded from Physical Blu-ray 6 Channel audio
"Always". Enj0y !

Server:
GlodlsTo

No description available. Description will be added shortly thanks

Server:
Yourbittorrent

What We Do In The ShadowsSmarter, fresher, and funnier than a modern vampire movie has any right to be, What We Do in the Shadows is bloody good fun.Viago, Deacon, and Vladislav are three vampires living together and trying to cope with modern life; from paying rent, doing housework, and trying to get into nightclubs, they're perfectly normal - except for their immortality, fangs, and thirst for human blood. When their 8000 year-old housemate, Petyr, turns 20-something Nick into a vampire, the guys must guide him through his newfound eternal life. In return, they are forced to learn a thing or two about modern life.