picktorrent picktorrent engine

Impressive Torrents Picker

ADD     picktorrent  to search engine list

Security note: Downloading torrents is getting riskier everyday. We strongly recommend our users to use SpyOFF VPN to make themselves anonymous while downloading torrents. By using SpyOFF VPN, your ISPs and Government agencies will not be able to spy on you neither would they be able to track your online activities.

Try it for free

Download torrent:
"Zdravstvuyte,ya vasha tetya!1975 DVDRip-AVC [Youtracker] by AVP Studio"

Size: 1.5 GB Category: Video > ru Date: 2013-09-15 16:22:22
Seeders: 0 Leechers: 0
Download This Torrent Magnet Link
We picked this "Zdravstvuyte,ya vasha tetya!1975 DVDRip-AVC [Youtracker] by AVP Studio" on: Rutor, Sumotorrent

Description

																					

Server:
Rutor

Страна: СССР
Производство: ТО Экран
Жанр: комедия
Год выпуска: 1975
Продолжительность: 01:37:29 (00:49:25 + 00:48:04)
Перевод: не требуется
Оригинальная аудиодорожка: русский
Cубтитры: нет
Режиссер: Виктор Титов
В ролях:
Александр Калягин, Тамара Носова, Татьяна Веденеева, Валентин Гафт, Михаил Любезнов, Олег Шкловский, Михаил Козаков, Армен Джигарханян, Галина Орлова, Татьяна Васильева...
Описание:
Англия начала ХХ века. Безработный Бабс волею случая попадает в богатый дом, где вынужден, спасаясь от преследования полицейских, играть роль тетушки-миллионерши, чтобы помочь двум юношам жениться на их возлюбленных. Самозванная бразильская миллионерша должна очаровать опекуна девушек; заодно жертвой ее обаяния (читай: миллионов) становится и отец одного из молодых людей...
Исходник: DVD5 R5
Тип релиза: DVDRip-AVC
Контейнер: MKV
Видео: 704->758x568 (4:3), 25 fps, H264 ~ 1752 kbps avg, 0.175 bit/pixel
Аудио: 48 kHz, Dolby AC3 5.1, 384 kbps
MediaInfo
Общее
Полное имя : Zdravstvuyte,ya.vasha.tetya!1975.DVDRip-AVC__by_AVP Studio.mkv
Формат : Matroska
Версия формата : Version 2
Размер файла : 1,46 Гбайт
Продолжительность : 1 ч. 37 м.
Общий поток : 2138 Кбит/сек
Дата кодирования : UTC 2013-09-15 19:33:44
Программа кодирования : mkvmerge v6.1.0 ('Old Devil') built on Mar 4 2013 09:10:42
Библиотека кодирования : libebml v1.3.0 + libmatroska v1.4.0
Видео
Идентификатор : 1
Формат : AVC
Формат/Информация : Advanced Video Codec
Профиль формата : High@L4.1
Параметр CABAC формата : Да
Параметр ReFrames формата : 11 кадров
Идентификатор кодека : V_MPEG4/ISO/AVC
Продолжительность : 1 ч. 37 м.
Битрейт : 1752 Кбит/сек
Ширина : 704 пикселя
Высота : 568 пикселей
Соотношение сторон : 4:3
Частота кадров : 25,000 кадров/сек
Цветовое пространство : YUV
Субдискретизация насыщенности : 4:2:0
Битовая глубина : 8 бит
Тип развёртки : Прогрессивная
Бит/(Пиксели*Кадры) : 0.175
Размер потока : 1,17 Гбайт (80%)
Библиотека кодирования : x264 core 138 r2356 a1d3d17
Настройки программы : cabac=1 / ref=11 / deblock=1:-2:-1 / analyse=0x3:0x113 / me=umh / subme=9 / psy=1 / psy_rd=1.00:0.15 / mixed_ref=1 / me_range=32 / chroma_me=1 / trellis=1 / 8x8dct=1 / cqm=0 / deadzone=21,11 / fast_pskip=0 / chroma_qp_offset=-3 / threads=3 / lookahead_threads=1 / sliced_threads=0 / nr=0 / decimate=0 / interlaced=0 / bluray_compat=0 / constrained_intra=0 / bframes=8 / b_pyramid=2 / b_adapt=2 / b_bias=0 / direct=3 / weightb=1 / open_gop=0 / weightp=2 / keyint=250 / keyint_min=25 / scenecut=40 / intra_refresh=0 / rc_lookahead=60 / rc=2pass / mbtree=1 / bitrate=1752 / ratetol=1.0 / qcomp=0.60 / qpmin=0 / qpmax=69 / qpstep=4 / cplxblur=20.0 / qblur=0.5 / ip_ratio=1.40 / aq=1:1.00
Default : Да
Forced : Нет
Аудио
Идентификатор : 2
Формат : AC-3
Формат/Информация : Audio Coding 3
Расширение режима : CM (complete main)
Идентификатор кодека : A_AC3
Продолжительность : 1 ч. 37 м.
Вид битрейта : Постоянный
Битрейт : 384 Кбит/сек
Каналы : 6 каналов
Расположение каналов : Front: L C R, Side: L R, LFE
Частота : 48,0 КГц
Битовая глубина : 16 бит
Метод сжатия : С потерями
Размер потока : 268 Мбайт (18%)
Default : Да
Forced : Нет
Скриншоты