picktorrent picktorrent engine
LOGIN REGISTER

Impressive Torrents Picker

ADD     picktorrent  to search engine list

Security note: Downloading torrents is getting riskier everyday. We strongly recommend our users to use SpyOFF VPN to make themselves anonymous while downloading torrents. By using SpyOFF VPN, your ISPs and Government agencies will not be able to spy on you neither would they be able to track your online activities.

Try it for free

Download torrent:
"Жизнь Пи / Life of Pi (2012) BDRip 720p | zames от Element team"

Size: 4.2 GB
Category: Video > Video
Date: 2013-03-07 01:45:33
Seeders: 0
Leechers: 0
Download This Torrent Magnet Link
We picked this "Жизнь Пи / Life of Pi (2012) BDRip 720p | zames от Element team" on: Bitsnoop, Opensharing

Description

																					

Server:
Opensharing

Информация о фильме
Название: Жизнь Пи
Оригинальное название: Life of Pi
Год выхода: 2012
Жанр: драма ,приключения
Режиссер: Энг Ли
В ролях: Сурадж Шарма, Ирфан Кхан, Рейф Сполл, Табу, Адиль Хуссэйн, Жерар Депардье, Аюш Тандон, Гаутам Белур, Аян Кхан, Мохд Аббас Халили
О фильме: Еще одна история "Маугли", которая происходит не в джунглях, а посреди Тихого океана, где по бескрайней водной глади дрейфует лодка со спасшимися после кораблекрушения. Семья решает перебраться жить в Канаду, но корабль терпит крушение. Индийский подросток Пи оказывается на шлюпке посреди океана в компании неожиданного попутчика — грозного бенгальского тигра. Фильм поставлен по одноименной книге Янна Мартелла, за которую автор получил Букеровскую премию.
Выпущено: США, Тайвань
Продолжительность: 2:06:59
Перевод: Одноголосый закадровый
Файл
Качество: BDRip 720p
Видео: 1280 x 690,AVC,High@L4.1,4 053 Kbps
Аудио: AC-3,384 Kbps,6 channels,48.0 KHz
Аудио 2: AC-3,384 Kbps,6 channels,48.0 KHz
Субтитры: Russian,English
                   
MI
Format : Matroska
Format version : Version 2
File size : 4.19 GiB
Duration : 2h 6mn
Overall bit rate : 4 727 Kbps
Movie name : Zhizn.Pi.2012.BDrip.720p.Element_team
Encoded date : UTC 2013-03-06 19:37:37
Writing application : mkvmerge v4.0.0 ('The Stars were mine') сборка от Jun 6 2010 16:18:42
Writing library : Lavf54.1.100
Video
ID : 1
Format : AVC
Format/Info : Advanced Video Codec
Format profile : High@L4.1
Format settings, CABAC : Yes
Format settings, ReFrames : 4 frames
Codec ID : V_MPEG4/ISO/AVC
Duration : 2h 6mn
Bit rate : 4 053 Kbps
Width : 1 280 pixels
Height : 690 pixels
Display aspect ratio : 1.855
Frame rate mode : Variable
Frame rate : 23.976 fps
Color space : YUV
Chroma subsampling : 4:2:0
Bit depth : 8 bits
Scan type : Progressive
Bits/(Pixel*Frame) : 0.191
Stream size : 3.43 GiB (82%)
Title : Zhizn.Pi.2012.BDrip.720p.Element_team
Writing library : x264 core 120 r2164
Encoding settings : cabac=1 / ref=4 / deblock=1:-3:-3 / analyse=0x3:0x133 / me=umh / subme=9 / psy=1 / psy_rd=1.00:0.10 / mixed_ref=1 / me_range=32 / chroma_me=1 / trellis=2 / 8x8dct=1 / cqm=0 / deadzone=21,11 / fast_pskip=0 / chroma_qp_offset=-3 / threads=12 / sliced_threads=0 / nr=1 / decimate=0 / interlaced=0 / bluray_compat=0 / constrained_intra=0 / bframes=6 / b_pyramid=2 / b_adapt=2 / b_bias=0 / direct=3 / weightb=1 / open_gop=1 / weightp=2 / keyint=230 / keyint_min=23 / scenecut=60 / intra_refresh=0 / rc_lookahead=60 / rc=abr / mbtree=1 / bitrate=4053 / ratetol=1.0 / qcomp=0.90 / qpmin=10 / qpmax=69 / qpstep=5 / vbv_maxrate=24000 / vbv_bufsize=24000 / nal_hrd=none / ip_ratio=1.40 / aq=1:0.90
Language : English
Audio #1
ID : 2
Format : AC-3
Format/Info : Audio Coding 3
Mode extension : CM (complete main)
Codec ID : A_AC3
Duration : 2h 6mn
Bit rate mode : Constant
Bit rate : 384 Kbps
Channel(s) : 6 channels
Channel positions : Front: L C R, Side: L R, LFE
Sampling rate : 48.0 KHz
Bit depth : 16 bits
Compression mode : Lossy
Stream size : 349 MiB (8%)
Title : Одноголосый, В.Замез
Language : Russian
Audio #2
ID : 3
Format : AC-3
Format/Info : Audio Coding 3
Mode extension : CM (complete main)
Codec ID : A_AC3
Duration : 2h 6mn
Bit rate mode : Constant
Bit rate : 384 Kbps
Channel(s) : 6 channels
Channel positions : Front: L C R, Side: L R, LFE
Sampling rate : 48.0 KHz
Bit depth : 16 bits
Compression mode : Lossy
Stream size : 349 MiB (8%)
Title : Оригинал
Language : English
Text #1
ID : 4
Format : UTF-8
Codec ID : S_TEXT/UTF8
Codec ID/Info : UTF-8 Plain Text
Language : Russian
Text #2
ID : 5
Format : UTF-8
Codec ID : S_TEXT/UTF8
Codec ID/Info : UTF-8 Plain Text
Language : English
Menu
00:00:00.000 : :00:00:00.000 / :00:00:00.000
00:03:58.822 : :00:03:58.822 / :00:03:58.822
00:11:13.172 : :00:11:13.172 / :00:11:13.172
00:15:24.924 : :00:15:24.924 / :00:15:24.924
00:21:29.622 : :00:21:29.622 / :00:21:29.622
00:25:44.543 : :00:25:44.543 / :00:25:44.543
00:29:46.827 : :00:29:46.827 / :00:29:46.827
00:31:31.014 : :00:31:31.014 / :00:31:31.014
00:35:34.299 : :00:35:34.299 / :00:35:34.299
00:45:24.347 : :00:45:24.347 / :00:45:24.347
00:50:21.894 : :00:50:21.894 / :00:50:21.894
00:54:13.333 : :00:54:13.333 / :00:54:13.333
00:57:18.352 : :00:57:18.352 / :00:57:18.352
01:00:07.395 : :01:00:07.395 / :01:00:07.395
01:04:12.057 : :01:04:12.057 / :01:04:12.057
01:09:32.085 : :01:09:32.085 / :01:09:32.085
01:11:48.054 : :01:11:48.054 / :01:11:48.054
01:13:34.285 : :01:13:34.285 / :01:13:34.285
01:16:47.561 : :01:16:47.561 / :01:16:47.561
01:21:31.178 : :01:21:31.178 / :01:21:31.178
01:23:10.027 : :01:23:10.027 / :01:23:10.027
01:26:30.852 : :01:26:30.852 / :01:26:30.852
01:31:21.434 : :01:31:21.434 / :01:31:21.434
01:34:13.857 : :01:34:13.857 / :01:34:13.857
01:43:42.675 : :01:43:42.675 / :01:43:42.675
01:47:38.661 : :01:47:38.661 / :01:47:38.661
01:55:20.080 : :01:55:20.080 / :01:55:20.080
01:59:16.274 : :01:59:16.274 / :01:59:16.274
Релиз от:
Залилjhordy